Торрент файл
скачать торрент магнет ссылка Добавлен: 08 янв 2012, 22:02
Размер: 4.14 ГБ
Сидеров: 5
Личеров: 4
Автор

СообщениеДобавлено: 08 янв 2012, 22:02 

Не в сети
Супермодератор
Аватара пользователя
Дата регистрации:
11 апр 2010, 18:10
Спасибо: 5960 / 7
Сообщения: 56765
Игра на выживание/ Surviving the Game (Custom)

Перевод: Профессиональный (многоголосый, закадровый)
Cубтитры: отсутствуют
Формат: DVD5, DVD Video, MPEG2, AC3
Страна: США
Режиссер: Эрнест Р. Дикерсон
Жанр: Боевик, триллер, драма, приключения, криминал
Продолжительность: 01:36:13
Год выпуска: 1994

В ролях: Айс-Ти, Рутгер Хауэр, Чарльз С. Даттон, Гэри Бьюзи, Ф. Мюррэй Абрахам, Джон К. МакГинли, Уильям МакНамара, Джефф Кори, Боб Майнор, Лоуренс С. МакКой

Описание: Одинокого, потерявшего семью бродягу приглашают поработать «инструктором по выживанию». Ничего не ведающего парня привозят на отдаленную лесную заимку, где собралась компания охотников. На следующее утро после обильного ужина выясняется, что дичью на предстоящей охоте будет не кто иной, как приглашенный бродяга.Хозяин заимки дает ему время для того, чтобы тот смог убежать подальше от охотников. И начинается «игра на выживание»: вооруженные до зубов «преследователи» на вездеходах гонят одинокого безоружного человека. Но жажда жизни и мести оказываются сильнее животного страха. И тогда преследователи из охотников превращаются в жертвы.

Рейтинг на КиноПоиск:6.675[/field]
Рейтинг MPAA:R[/field]
Рейтинг на IMDB:5.8/10[/field][/field]

Видео: 720x480, ( NTSC 16:9), MPEG2 Video, 29,970кадр/сек, ~ 9 802 Кбит/сек, 0.489 Бит/(Пиксели*Кадры)
Аудио #1: Русский, 48,0 КГц, AC3, 2 канала(ов), ~192 Кбит/сек [Профессиональный (многоголосый, закадровый) (НТВ)]
Аудио #2: Русский, 48,0 КГц, AC3,6 канала(ов), ~448 Кбит/сек [Авторский (одноголосый) (Андрей Дольский)]
Аудио #3: Английский, 48,0 КГц, AC3, 6 канала(ов), ~448 Кбит/сек [Оригинал][/field]

Доп. информация: Фильм скачан в сети DC++, что было в качестве исходного материала мне неизвестно.


Полное имя: D:\РУТГЕР ХАУЕР\Игра на выживание DVD-5\VIDEO_TS\VTS_01_1.VOB
Формат: MPEG-PS
Размер файла: 1000 Мбайт
Продолжительность: 22 м.
Общий поток: 6278 Кбит/сек
Видео
Идентификатор: 224 (0xE0)
Формат: MPEG Video
Версия формата: Version 2
Профиль формата: Main@Main
Параметр BVOP формата: Да
Параметр матрицы формата: По умолчанию
Продолжительность: 22 м.
Вид битрейта: Переменный
Битрейт: 5065 Кбит/сек
Номинальный битрейт: 9802 Кбит/сек
Ширина: 720 пикс.
Высота: 480 пикс.
Соотношение сторон: 16:9
Частота кадров: 29,970 кадр/сек
Стандарт вещания: NTSC
Цветовое пространство: YUV
Подвыборка цветности: 4:2:0
Битовая глубина: 8 бит
Метод сжатия: С потерями
Бит/(Пиксели*Кадры): 0.489
Размер потока: 807 Мбайт (81%)
Аудио #1
Идентификатор: 128 (0x80)
Формат: AC-3
Формат/Информация: Audio Coding 3
Расширение режима: CM (complete main)
Продолжительность: 22 м.
Вид битрейта: Постоянный
Битрейт: 192 Кбит/сек
Канал(ы): 2 канала(ов)
Расположение каналов: Front: L R
Частота: 48,0 КГц
Битовая глубина: 16 бит
Метод сжатия: С потерями
Размер потока: 30,6 Мбайт (3%)
Аудио #2
Идентификатор: 129 (0x81)
Формат: AC-3
Формат/Информация: Audio Coding 3
Расширение режима: CM (complete main)
Продолжительность: 22 м.
Вид битрейта: Постоянный
Битрейт: 448 Кбит/сек
Канал(ы): 6 канала(ов)
Расположение каналов: Front: L C R, Side: L R, LFE
Частота: 48,0 КГц
Битовая глубина: 16 бит
Метод сжатия: С потерями
Размер потока: 71,4 Мбайт (7%)
Аудио #3
Идентификатор: 130 (0x82)
Формат: AC-3
Формат/Информация: Audio Coding 3
Расширение режима: CM (complete main)
Продолжительность: 22 м.
Вид битрейта: Постоянный
Битрейт: 448 Кбит/сек
Канал(ы): 6 канала(ов)
Расположение каналов: Front: L C R, Side: L R, LFE
Частота: 48,0 КГц
Битовая глубина: 16 бит
Метод сжатия: С потерями
Размер потока: 71,4 Мбайт (7%)
Текст
Идентификатор: 224 (0xE0)-DVD-2
Формат: EIA-608
Режим смешивания: DVD-Video
Режим смешивания, доп. информаци : Muxed in Video #1
Размер потока: 0,00 байт (0%)
Меню






















Поделиться:




реклама партнёра


Вернуться к началу
 Профиль Отправить личное сообщение  
 
   Похожие торренты   Автор   Торрент   Размер 
В этой теме нет новых непрочитанных сообщений. Ходячие мертвецы / The Walking Dead [06х01-09 из 16] (Эрнест Р. Дикерсон, Билл Джирхарт, Гай Ферленд) [2015, ужасы, триллер, драма, приключения, HDTVRip | ColdFilm]

Nickolas3435

25 | 118

4.79 ГБ

В этой теме нет новых непрочитанных сообщений. Сонная Лощина / Sleepy Hollow [03х01-07 из 18] (Кен Олин, Эрнест Р. Дикерсон, Пол А. Эдвардс) [2015, фэнтези, триллер, драма, детектив, приключения, WEB-DLRip | LostFilm]

Dracon

254 | 612

3.25 ГБ

В этой теме нет новых непрочитанных сообщений. Сонная Лощина / Sleepy Hollow [03х01-09 из 18] (Кен Олин, Эрнест Р. Дикерсон, Пол А. Эдвардс) [2015, фэнтези, триллер, драма, детектив, приключения, WEB-DL 720p | LostFilm]

Nickolas3435

4 | 7

13.02 ГБ

В этой теме нет новых непрочитанных сообщений. Сонная Лощина / Sleepy Hollow / 3 сезон 1-18 серии из 18 (Кен Олин, Эрнест Р. Дикерсон, Пол А. Эдвардс) [2015, фэнтези, триллер, драма, детектив, приключения, WEB-DLRip | LostFilm]

Dracon

191 | 152

8.93 ГБ

В этой теме нет новых непрочитанных сообщений. Игра смерти / Game of Death [боевик, триллер, приключения, 2010] BDRip, Mvo [Ren-TV]

salma3

168 | 88

1.45 ГБ

В этой теме нет новых непрочитанных сообщений. Ходячие мертвецы / The Walking Dead [S06] (Эрнест Р. Дикерсон, Билл Джирхарт, Гай Ферленд) [Ужасы, триллер, драма, фантастика, 2015] WEB-DLRip [FOX]

Dracon

898 | 4580

8.5 ГБ

В этой теме нет новых непрочитанных сообщений. Ходячие мертвецы / The Walking Dead [06x01-05 из 16] (Эрнест Р. Дикерсон, Грег Никотеро, Гай Ферленд) [2015, Ужасы, триллер, драма, WEB-DL 720p | Jaskier]

Nickolas3435

72 | 329

8.65 ГБ


Начать новую тему Ответить на тему  [ 1 сообщение ] 




Для Мосгорсуда, Роскомнадзора и рекламодателей:: mosgorsud-torrent[собачка]yandex.ru