Торрент файл
скачать торрент магнет ссылка Добавлен: 08 янв 2012, 22:01
Размер: 4.36 ГБ
Сидеров: 0
Личеров: 4
Автор

СообщениеДобавлено: 08 янв 2012, 22:01 

Не в сети
Супермодератор
Аватара пользователя
Дата регистрации:
11 апр 2010, 18:10
Спасибо: 5802 / 7
Сообщения: 56779
Гонин / Gonin

Перевод: Профессиональный (двухголосый)
Cубтитры: отсутствуют
Формат: DVD5, DVD Video, MPEG2, AC3
Страна: Япония
Режиссер: Такаши Ишии
Жанр: Боевик, драма, криминал
Продолжительность: 01:49:08
Год выпуска: 1995

В ролях: Коити Сато, Масахиро Мотоки, Джинпачи Незу, Киппэй Сиина, Наото Такэнака, Такеши Китано, Казуя Кимура, Дайскэ Иидзим,а Ryo Iwamatsu, Маико Каваками

Описание: Герои этой картины переступили ту черту, за которой уже нечего терять. И каждому из них позарез нужны деньги: Задолжавший бандитам владелец дискотеки; безработный конторский служащий; манерный вымогатель; сутенер-неврастеник и бывший полицейский… Однажды эти пять отчаянных мужчин решили ограбить гангстеров. И не просто гангстеров, а банду Огоши — одну из самых влиятельных семей якудзы в Осаке. В день налета им улыбнулась удача — дерзкий план сработал. К вечеру в руках грабителей — дилетантов уже была с кровью отвоеванная сумка с десятками миллионов йен. Но на этом подарки судьбы закончились: семья Огоши нанимает двух самых ужасных убийц в городе, от страшной мести которых еще никто и никогда не уходил.

Рейтинг на КиноПоиск:6.598[/field]
Рейтинг на IMDB:6.9/10[/field][/field]

Видео: 720x576, ( PAL 4:3), MPEG2 Video, 25,000 кадр/сек, ~ 8000 Кбит/сек
Аудио: Русский, 48,0 КГц, AC3, 2 канала(ов), ~192 Кбит/сек [Профессиональный (двухголосый)]


Полное имя: I:\Фильмы DVD\Ихние\Гонин DVD-5\VIDEO_TS\VTS_02_1.VOB
Формат: MPEG-PS
Размер файла: 1024 Мбайт
Продолжительность: 25 м.
Общий поток: 5527 Кбит/сек
Видео
Идентификатор: 224 (0xE0)
Формат: MPEG Video
Версия формата: Version 2
Профиль формата: Main@Main
Параметр BVOP формата: Да
Параметр матрицы формата: По умолчанию
Продолжительность: 25 м.
Вид битрейта: Переменный
Битрейт: 5033 Кбит/сек
Номинальный битрейт: 8000 Кбит/сек
Ширина: 720 пикс.
Высота: 576 пикс.
Соотношение сторон: 4:3
Частота кадров: 25,000 кадр/сек
Стандарт вещания: PAL
Цветовое пространство: YUV
Подвыборка цветности: 4:2:0
Битовая глубина: 8 бит
Тип развёртки: Чересстрочная
Порядок развёртки: Верхнее поле первое
Метод сжатия: С потерями
Бит/(Пиксели*Кадры): 0.485
Размер потока: 932 Мбайт (91%)
Аудио
Идентификатор: 128 (0x80)
Формат: AC-3
Формат/Информация: Audio Coding 3
Расширение режима: CM (complete main)
Продолжительность: 25 м.
Вид битрейта: Постоянный
Битрейт: 384 Кбит/сек
Канал(ы): 6 канала(ов)
Расположение каналов: Front: L C R, Side: L R, LFE
Частота: 48,0 КГц
Битовая глубина: 16 бит
Метод сжатия: С потерями
Задержка видео: -80 мс.
Размер потока: 71,1 Мбайт (7%)
Меню






















Поделиться:




реклама партнёра


Вернуться к началу
 Профиль Отправить личное сообщение  
 
   Похожие торренты   Автор   Торрент   Размер 
В этой теме нет новых непрочитанных сообщений. Наёмные убийцы / Assassins [Боевик, триллер, криминал, 1995] DVD5, Dub [Лицензия]

salma3

5 | 5

3.73 ГБ

В этой теме нет новых непрочитанных сообщений. Имитатор / Copycat [триллер, драма, криминал, детектив, 1995] DVD5, Mvo+Sub

salma3

4 | 2

4.26 ГБ

В этой теме нет новых непрочитанных сообщений. Бессмертные / The Immortals [Боевик, триллер, драма, криминал, 1995] DVDRip, Mvo [НТВ]

salma3

92 | 10

1.37 ГБ

В этой теме нет новых непрочитанных сообщений. Поле битвы / Maidan-E-Jung [боевик, драма, криминал, 1995] DVDRip, Avo

salma3

2 | 4

1.46 ГБ

В этой теме нет новых непрочитанных сообщений. Бессмертные / The Immortals [боевик, триллер, драма, криминал, 1995] DVDRip, Avo [Гаврилов]

salma3

75 | 3

1.36 ГБ

В этой теме нет новых непрочитанных сообщений. Сеть / The Net [Боевик, триллер, драма, криминал, детектив, 1995] BDRip 1080p, Mvo+Sub

salma3

26 | 5

9.73 ГБ

В этой теме нет новых непрочитанных сообщений. Маршал / The Marshal / 1-2 сезоны 1-16 серии из 25 [боевик, драма, криминал, 1995] SATRip, [CBS Drama]

salma3

11 | 18

8.6 ГБ


Начать новую тему Ответить на тему  [ 1 сообщение ] 




Для Мосгорсуда, Роскомнадзора и рекламодателей:: mosgorsud-torrent[собачка]yandex.ru