Торрент файл
скачать торрент магнет ссылка Добавлен: 08 янв 2012, 22:01
Размер: 4.38 ГБ
Сидеров: 0
Личеров: 3
Автор

СообщениеДобавлено: 08 янв 2012, 22:01 

Не в сети
Супермодератор
Аватара пользователя
Дата регистрации:
11 апр 2010, 18:10
Спасибо: 5799 / 7
Сообщения: 56779
Игры патриотов / Patriot Games

Перевод: Профессиональный (многоголосый, закадровый)
Cубтитры: Русские, английские
Формат: DVD5, DVD Video, MPEG2, AC3
Страна: США
Режиссер: Филлип Нойс
Жанр: Боевик, триллер, драма, криминал
Продолжительность: 01:56:36
Год выпуска: 1992

В ролях: Харрисон Форд, Шон Бин, Энн Арчер, Патрик Бергин, Тора Бёрч, Джеймс Фокс, Сэмюэл Л. Джексон, Полли Уокер, Дж. Э. Фримен, Джеймс Эрл Джонс

Описание: Бывший сотрудник ЦРУ, а ныне профессор военно-морской академии США Джек Райан, находясь в Лондоне с докладом, случайно становится свидетелем террористического акта Ирландской республиканской армии против королевской семьи. Райан предотвращает трагедию, но ирландские террористы грозят отомстить. Опасная угроза нависает над Райаном, его женой и дочерью…

Рейтинг на КиноПоиск:6.981[/field]
Рейтинг MPAA:R[/field]
Рейтинг на IMDB:6.9/10[/field][/field]

Видео: 720x480, (NTSC 16:9), MPEG2 Video, 23,976 кадр/сек, ~ 8092 Кбит/сек
Аудио: Русский, 48,0 КГц, AC3, 6 канала(ов), ~448 Кбит/сек [Профессиональный (многоголосый, закадровый)]

Доп. информация:
    Релиз на DVD 22 декабря 2009, «Юниверсал Пикчерс Рус»
    Диск сжат DVD Rebuilder+CCE в девять проходов на 18%, титры на 90%.
    Удалены все допы, реклама, английская ac3 и dts и русская двухканальная дорожки.
  • Меню отредактировано."



Полное имя: H:\Фильмы DVD\Игры патриотов DVD-9\VIDEO_TS\VTS_01_1.VOB
Формат: MPEG-PS
Размер файла: 1024 Мбайт
Продолжительность: 27 м.
Общий поток: 5172 Кбит/сек
Видео
Идентификатор: 224 (0xE0)
Формат: MPEG Video
Версия формата: Version 2
Профиль формата: Main@Main
Параметр BVOP формата: Да
Параметр матрицы формата: По умолчанию
Продолжительность: 27 м.
Вид битрейта: Переменный
Битрейт: 4621 Кбит/сек
Номинальный битрейт: 8092 Кбит/сек
Ширина: 720 пикс.
Высота: 480 пикс.
Соотношение сторон: 16:9
Частота кадров: 23,976 кадр/сек
Стандарт вещания: NTSC
Цветовое пространство: YUV
Подвыборка цветности: 4:2:0
Битовая глубина: 8 бит
Тип развёртки: Прогрессивная
Порядок развёртки: 2:3 Pulldown
Метод сжатия: С потерями
Бит/(Пиксели*Кадры): 0.558
Размер потока: 915 Мбайт (89%)
Аудио
Идентификатор: 130 (0x82)
Формат: AC-3
Формат/Информация: Audio Coding 3
Расширение режима: CM (complete main)
Продолжительность: 27 м.
Вид битрейта: Постоянный
Битрейт: 448 Кбит/сек
Канал(ы): 6 канала(ов)
Расположение каналов: Front: L C R, Side: L R, LFE
Частота: 48,0 КГц
Битовая глубина: 16 бит
Метод сжатия: С потерями
Размер потока: 88,7 Мбайт (9%)
Текст #1
Идентификатор: 32 (0x20)
Формат: RLE
Формат/Информация: Run-length encoding
Продолжительность: 27 м.
Текст #2
Идентификатор: 33 (0x21)
Формат: RLE
Формат/Информация: Run-length encoding
Продолжительность: 27 м.
Текст #3
Идентификатор: 35 (0x23)
Формат: RLE
Формат/Информация: Run-length encoding
Текст #4
Идентификатор: 36 (0x24)
Формат: RLE
Формат/Информация: Run-length encoding
Текст #5
Идентификатор: 34 (0x22)
Формат: RLE
Формат/Информация: Run-length encoding
Меню




















Поделиться:




реклама партнёра


Вернуться к началу
 Профиль Отправить личное сообщение  
 
   Похожие торренты   Автор   Торрент   Размер 
В этой теме нет новых непрочитанных сообщений. Игры патриотов / Patriot Games [боевик, триллер, драма, криминал, 1992] BDRip 720p, 2Mvo+Avo+Dvo

salma3

23 | 6

11.71 ГБ

В этой теме нет новых непрочитанных сообщений. Игры Патриотов / Patriot Games [триллер, 1992] HDRip, Mvo

salma3

102 | 9

1.45 ГБ

В этой теме нет новых непрочитанных сообщений. Военные игры / War Games: At the End of the Day [Триллер, боевик, ужасы, 2011] DVD5, Mvo

salma3

15 | 11

4.35 ГБ

В этой теме нет новых непрочитанных сообщений. Правила игры (Холостяцкие игры) / Bachelor Games [ужасы, боевик, триллер, комедия, приключения, 2016] HDRip, Avo

salma3

199 | 9

1.28 ГБ

В этой теме нет новых непрочитанных сообщений. Забавные игры / Funny Games [триллер, драма, криминал, 1997] BDRemux 1080p, Dvo+Sub

salma3

19 | 20

26.02 ГБ

В этой теме нет новых непрочитанных сообщений. Посвященный / The Giver (Филлип Нойс) [2014, фантастика, драма, TS] Dub

Nickolas3435

173 | 6

1.37 ГБ

В этой теме нет новых непрочитанных сообщений. Посвященный / The Giver (Филлип Нойс) [2014, фантастика, драма, HDTVRip | Чистый звук] Dub

Nickolas3435

291 | 6

697.34 МБ


Начать новую тему Ответить на тему  [ 1 сообщение ] 




Для Мосгорсуда, Роскомнадзора и рекламодателей:: mosgorsud-torrent[собачка]yandex.ru