Торрент файл
скачать торрент магнет ссылка Добавлен: 08 янв 2012, 22:01
Размер: 4.36 ГБ
Сидеров: 1
Личеров: 3
Автор

СообщениеДобавлено: 08 янв 2012, 22:01 

Не в сети
Супермодератор
Аватара пользователя
Дата регистрации:
11 апр 2010, 18:10
Спасибо: 5801 / 7
Сообщения: 56779
Дневник слабака 2: Правила Родрика / Diary of a Wimpy Kid: Rodrick Rules

Перевод:Профессиональный (многоголосый, закадровый)
Субтитры: Английские, португальские, русские
Формат:DVD5, DVD Video, MPEG2, AC-3
Страна:США
Режиссер:Дэвид Бауэрс
Жанр:комедия
Продолжительность:01:35:31
Год выпуска:2011

В главных ролях:Захари Гордан, Девон Бостик, Рэйчел Харрис, Роберт Капрон, Стив Зан, Коннор Филдинг, Оуэн Филдинг, Пейтон Лист, Каран Брэр, Лэйн МакНил

Описание: Грег Хеффлей возвращается после школьных каникул, избавившись от «сырного проклятия» и
как никогда уверен в себе. Однако дела дома идут из рук вон плохо, особенно со старшим
братом, Родриком. Грегу уже начинает казаться, что есть вещи пострашнее, чем средняя школа, — его семья!


Рейтинг на КиноПоиск: 6.591 (488)
Рейтинг на IMDb: 6.0/10
Рейтинг MPAA: PG

Видео:720x576 (PAL16:9), 25,000fps, MPEG-2 Video, ~ 6831 Kbps avg
Аудио#1: английский 48.0KHz, AC-3, 6 ch, ~ 448Kbps avg[Оригинал]
Аудио#2: русский 48.0KHz, AC-3, 6 ch, ~ 384Kbps avg[Профессиональный (многоголосый, закадровый)]


Слоган: «Welcome to the next grade»

Трейлер к фильму

Общее
Полное имя: D:\загрузки\diary_of_a_wimpy_kid_[tfile.ru]\VIDEO_TS\VTS_03_3.VOB
Формат: MPEG-PS
Размер файла: 1024 Мбайт
Продолжительность: 22 м.
Режим общего битрейта: Переменный
Общий поток: 6453 Кбит/сек

Видео
Идентификатор: 224 (0xE0)
Формат: MPEG Video
Версия формата: Version 2
Профиль формата: Main@Main
Параметр BVOP формата: Да
Параметр матрицы формата: Выборочная
Продолжительность: 22 м.
Вид битрейта: Переменный
Битрейт: 5493 Кбит/сек
Максимальный битрейт: 6831 Кбит/сек
Ширина: 720 пикселей
Высота: 576 пикселей
Соотношение сторон: 16:9
Частота кадров: 25,000 кадров/сек
Стандарт вещания: PAL
Цветовое пространство: YUV
Субдискретизация насыщенности: 4:2:0
Битовая глубина: 8 бит
Тип развёртки: Прогрессивная
Порядок развёртки: Верхнее поле первое
Метод сжатия: С потерями
Бит/(Пиксели*Кадры): 0.530
Размер потока: 872 Мбайт (85%)

Аудио #1
Идентификатор: 189 (0xBD)-128 (0x80)
Формат: AC-3
Формат/Информация: Audio Coding 3
Расширение режима: CM (complete main)
Режим смешивания: DVD-Video
Продолжительность: 22 м.
Вид битрейта: Постоянный
Битрейт: 448 Кбит/сек
Каналы: 6 каналов
Расположение каналов: Front: L C R, Side: L R, LFE
Частота: 48,0 КГц
Битовая глубина: 16 бит
Метод сжатия: С потерями
Задержка видео: -656 мс.
Размер потока: 71,1 Мбайт (7%)

Аудио #2
Идентификатор: 189 (0xBD)-129 (0x81)
Формат: AC-3
Формат/Информация: Audio Coding 3
Расширение режима: CM (complete main)
Режим смешивания: DVD-Video
Продолжительность: 22 м.
Вид битрейта: Постоянный
Битрейт: 384 Кбит/сек
Каналы: 6 каналов
Расположение каналов: Front: L C R, Side: L R, LFE
Частота: 48,0 КГц
Битовая глубина: 16 бит
Метод сжатия: С потерями
Задержка видео: -624 мс.
Размер потока: 60,9 Мбайт (6%)

Текст #1
Идентификатор: 189 (0xBD)-32 (0x20)
Формат: RLE
Формат/Информация: Run-length encoding
Режим смешивания: DVD-Video
Задержка видео: 3 с. 960 мс.

Текст #2
Идентификатор: 189 (0xBD)-33 (0x21)
Формат: RLE
Формат/Информация: Run-length encoding
Режим смешивания: DVD-Video
Задержка видео: 3 с. 960 мс.

Текст #3
Идентификатор: 189 (0xBD)-34 (0x22)
Формат: RLE
Формат/Информация: Run-length encoding
Режим смешивания: DVD-Video
Задержка видео: 3 с. 960 мс.

Текст #4
Идентификатор: 189 (0xBD)-35 (0x23)
Формат: RLE
Формат/Информация: Run-length encoding
Режим смешивания: DVD-Video
Задержка видео: 3 с. 960 мс.

Текст #5
Идентификатор: 189 (0xBD)-36 (0x24)
Формат: RLE
Формат/Информация: Run-length encoding
Режим смешивания: DVD-Video
Задержка видео: 3 с. 960 мс.

Текст #6
Идентификатор: 189 (0xBD)-37 (0x25)
Формат: RLE
Формат/Информация: Run-length encoding
Режим смешивания: DVD-Video
Задержка видео: 3 с. 960 мс.

Текст #7
Идентификатор: 189 (0xBD)-38 (0x26)
Формат: RLE
Формат/Информация: Run-length encoding
Режим смешивания: DVD-Video
Задержка видео: 3 с. 960 мс.

Текст #8
Идентификатор: 189 (0xBD)-39 (0x27)
Формат: RLE
Формат/Информация: Run-length encoding
Режим смешивания: DVD-Video
Задержка видео: 3 с. 960 мс.

Текст #9
Идентификатор: 189 (0xBD)-40 (0x2
Формат: RLE
Формат/Информация: Run-length encoding
Режим смешивания: DVD-Video
Задержка видео: 3 с. 960 мс.

Текст #10
Идентификатор: 189 (0xBD)-41 (0x29)
Формат: RLE
Формат/Информация: Run-length encoding
Режим смешивания: DVD-Video
Задержка видео: 3 с. 960 мс.

Текст #11
Идентификатор: 189 (0xBD)-42 (0x2A)
Формат: RLE
Формат/Информация: Run-length encoding
Режим смешивания: DVD-Video
Задержка видео: 3 с. 960 мс.

Текст #12
Идентификатор: 189 (0xBD)-43 (0x2B)
Формат: RLE
Формат/Информация: Run-length encoding
Режим смешивания: DVD-Video
Задержка видео: 3 с. 960 мс.

Текст #13
Идентификатор: 189 (0xBD)-44 (0x2C)
Формат: RLE
Формат/Информация: Run-length encoding
Режим смешивания: DVD-Video
Задержка видео: 3 с. 840 мс.

Текст #14
Идентификатор: 189 (0xBD)-45 (0x2D)
Формат: RLE
Формат/Информация: Run-length encoding
Режим смешивания: DVD-Video
Задержка видео: 3 с. 960 мс.

Текст #15
Идентификатор: 189 (0xBD)-46 (0x2E)
Формат: RLE
Формат/Информация: Run-length encoding
Режим смешивания: DVD-Video
Задержка видео: 3 с. 960 мс.

Текст #16
Идентификатор: 189 (0xBD)-47 (0x2F)
Формат: RLE
Формат/Информация: Run-length encoding
Режим смешивания: DVD-Video
Задержка видео: 3 с. 960 мс.

Текст #17
Идентификатор: 189 (0xBD)-48 (0x30)
Формат: RLE
Формат/Информация: Run-length encoding
Режим смешивания: DVD-Video
Задержка видео: 3 с. 960 мс.

Текст #18
Идентификатор: 189 (0xBD)-49 (0x31)
Формат: RLE
Формат/Информация: Run-length encoding
Режим смешивания: DVD-Video
Задержка видео: 3 с. 960 мс.

Текст #19
Идентификатор: 189 (0xBD)-50 (0x32)
Формат: RLE
Формат/Информация: Run-length encoding
Режим смешивания: DVD-Video
Задержка видео: 3 с. 960 мс.

Меню

Сценарий: Гейб Сакс, Джефф Джуда, Джефф Кинни
Продюсер: Нина Джейкобсон, Брэдфорд Симпсон, Джефф Кинни, ...
Оператор: Джек Н. Грин
Композитор: Эд Ширмёр
Художник: Брент Томас, Тиш Монахэн
Монтаж: Трой Такаки
Бюджет: $21 000 000
Сборы в США: $52 698 535
Сборы в мире: + $19 208 035 = $71 906 570
Зрители: Германия272.4 тыс., Бразилия84.5 тыс.
Премьера (мир): 17 марта 2011, ...
Релиз на DVD: 1 сентября 2011, «Двадцатый Век Фокс СНГ», ...
Релиз на Blu-Ray: 1 сентября 2011, «Двадцатый Век Фокс СНГ», ...























Поделиться:




реклама партнёра


Вернуться к началу
 Профиль Отправить личное сообщение  
 
   Похожие торренты   Автор   Торрент   Размер 
В этой теме нет новых непрочитанных сообщений. Правила совместной жизни / Rules of Engagement [S07х01-13] [Комедия, мелодрама, 2013] WEB-DL 1080p. Mvo+Dvo

salma3

3 | 2

11.11 ГБ

В этой теме нет новых непрочитанных сообщений. Правила секса / The Rules of Attraction [Комедия, мелодрама, драма, триллер, 2002] BDRip 720p, Dub

salma3

48 | 4

3.74 ГБ

В этой теме нет новых непрочитанных сообщений. Мой безумный дневник / My Mad Fat Diary [S01] (Бен Карон, Тим Кирби) [драма, комедия, 2013] HDTVRip [ViruseProject]

Dracon

90 | 7

3.32 ГБ

В этой теме нет новых непрочитанных сообщений. Мой безумный дневник / My Mad Fat Diary [s02] (Алекс Винклер, Бенжамин Карон, Тим Кирби) [драма, комедия, 2014] HDTVRip [ViruseProject]

Dracon

24 | 6

5.21 ГБ

В этой теме нет новых непрочитанных сообщений. Мамин дом,мамины правила / Mom's House, Mom's Rules (2014) WEB-DLRip[720p]

shans5

4 | 4

1.8 ГБ

В этой теме нет новых непрочитанных сообщений. Дневник извращенца / Diary of a Perv (2014) WEB-DL

friizze

159 | 462

2.7 ГБ

В этой теме нет новых непрочитанных сообщений. Тайный дневник девушки по вызову / Secret Diary of a Call Girl / 1-4 сезоны 1-32 серии из 32 [драма, мелодрама, 2007-2011] DVDRip, Mvo [МузТВ]

salma3

28 | 15

6.05 ГБ


Начать новую тему Ответить на тему  [ 1 сообщение ] 




Для Мосгорсуда, Роскомнадзора и рекламодателей:: mosgorsud-torrent[собачка]yandex.ru