Торрент файл
скачать торрент магнет ссылка Добавлен: 08 янв 2012, 21:59
Размер: 3.75 ГБ
Сидеров: 0
Личеров: 6
Автор

СообщениеДобавлено: 08 янв 2012, 21:59 

Не в сети
Супермодератор
Аватара пользователя
Дата регистрации:
11 апр 2010, 18:10
Спасибо: 5802 / 7
Сообщения: 56779
Семейство Блюз под прикрытием ( Из жизни тайных агентов ) / Undercover Blues

Перевод: Профессиональный (одноголосый)
Cубтитры:Английские, французские, испанские
Формат: DVD5, DVD Video, MPEG2, AC3
Страна: США
Режиссер: Херберт Росс
Жанр: Комедия, криминал
Продолжительность: 01:29:44
Год выпуска: 1993

В ролях: Кэтлин Тёрнер, Деннис Куэйд, Фиона Шоу, Стенли Туччи, Ларри Миллер, Обба Бабатунде, Том Арнольд, Парк Овералл, Ральф Браун, Ян Тришка

Описание: Суперагенты ФБР И ЦРУ Джефф и Джейн, в связи с рождением дочурки, отпросились в отпуск, который решили провести в Новом Орлеане. Но отдыха не получилось. Джефф сразу же заинтересовал местную полицию, когда, выйдя на улицу с ребёнком, отбился от двух вооруженных грабителей, один из которых был известен всей округе под кличкой «Смерть». Лейтенант полиции Сойер связался со столицей и понял, кто прибыл в их городок. С этой минуты Джефф и Джейн находились под постоянным надзором Сойера и его помощника. В это время в Новом Орлеане оказывается известная чешская преступница Полина Новачек, похищающая военные секреты и успешно торгующая ими. Похитив новейшее оружие у американцев, Новачек вызывает к себе их пристальное внимание. Джефф и Джейн получают задание нейтрализовать Новачек…

Рейтинг на КиноПоиск:6.899[/field]
Рейтинг MPAA :PG-13[/field]
Рейтинг на IMDB:5.5/10[/field][/field]

Видео: 720x480, ( NTSC 16:9), MPEG2 Video, 29,970 кадр/сек, ~ 9 802 Кбит/сек
Аудио #1: Русский, 48,0 КГц, AC3, 2 канала(ов), ~192 Кбит/сек [Профессиональный (одноголосый)]
Аудио #2: Английский, 48,0 КГц, AC3, 2 канала(ов), ~192 Кбит/сек [Оригинал][/field]


Полное имя: D:\ИЗ ЖИЗНИ ТАЙНЫХ АГЕНТОВ DVD-5\VIDEO_TS\VTS_01_1.VOB
Формат: MPEG-PS
Размер файла: 1024 Мбайт
Продолжительность: 25 м.
Общий поток: 5539 Кбит/сек
Видео
Идентификатор: 224 (0xE0)
Формат: MPEG Video
Версия формата: Version 2
Профиль формата: Main@Main
Параметр BVOP формата: Да
Параметр матрицы формата: По умолчанию
Продолжительность: 25 м.
Вид битрейта: Переменный
Битрейт: 5045 Кбит/сек
Номинальный битрейт: 9802 Кбит/сек
Ширина: 720 пикс.
Высота: 480 пикс.
Соотношение сторон: 16:9
Частота кадров: 29,970 кадр/сек
Стандарт вещания: NTSC
Цветовое пространство: YUV
Подвыборка цветности: 4:2:0
Битовая глубина: 8 бит
Метод сжатия: С потерями
Бит/(Пиксели*Кадры): 0.487
Размер потока: 932 Мбайт (91%)
Аудио #1
Идентификатор: 128 (0x80)
Формат: AC-3
Формат/Информация: Audio Coding 3
Профиль формата: Dolby Digital
Расширение режима: CM (complete main)
Продолжительность: 25 м.
Вид битрейта: Постоянный
Битрейт: 192 Кбит/сек
Канал(ы): 2 канала(ов)
Расположение каналов: Front: L R
Частота: 48,0 КГц
Битовая глубина: 16 бит
Метод сжатия: С потерями
Размер потока: 35,5 Мбайт (3%)
Аудио #2
Идентификатор: 129 (0x81)
Формат: AC-3
Формат/Информация: Audio Coding 3
Профиль формата: Dolby Digital
Расширение режима: CM (complete main)
Продолжительность: 25 м.
Вид битрейта: Постоянный
Битрейт: 192 Кбит/сек
Канал(ы): 2 канала(ов)
Расположение каналов: Front: L R
Частота: 48,0 КГц
Битовая глубина: 16 бит
Метод сжатия: С потерями
Размер потока: 35,5 Мбайт (3%)
Текст #1
Идентификатор: 224 (0xE0)-DVD-2
Формат: EIA-608
Режим смешивания: DVD-Video
Режим смешивания, доп. информаци : Muxed in Video #1
Размер потока: 0,00 байт (0%)
Текст #2
Идентификатор: 32 (0x20)
Формат: RLE
Формат/Информация: Run-length encoding
Текст #3
Идентификатор: 33 (0x21)
Формат: RLE
Формат/Информация: Run-length encoding
Текст #4
Идентификатор: 34 (0x22)
Формат: RLE
Формат/Информация: Run-length encoding
Меню
























Поделиться:




реклама партнёра


Вернуться к началу
 Профиль Отправить личное сообщение  
 
   Похожие торренты   Автор   Торрент   Размер 
В этой теме нет новых непрочитанных сообщений. Семейство Блюз под прикрытием / Undercover Blues [комедия, 1993] HDTVRip 720p, Mvo+3Avo

salma3

49 | 7

4.68 ГБ

В этой теме нет новых непрочитанных сообщений. Шпион: Операция под прикрытием / The Spy: Undercover Operation [боевик, комедия, 2013] HDRip, Avo

salma3

23 | 2

1.46 ГБ

В этой теме нет новых непрочитанных сообщений. Под прикрытием / Gangland Undercover [Season 1, Episodes 1-6 of 6] (Карл Хиндмарч) [Драма, криминал, биография, история, 2015] WEB-DLRip, Mvo [NewStudio]

Dracon

123 | 33

3.22 ГБ

В этой теме нет новых непрочитанных сообщений. Шпион: Операция под прикрытием / Seu-pa-i / The Spy: Undercover Operation [боевик, комедия, 2013] HDTV 720p, Avo

salma3

41 | 6

3.71 ГБ

В этой теме нет новых непрочитанных сообщений. Братья Блюз / The Blues Brothers [боевик, комедия, криминал, музыка, 1980] Blu-ray 1080p, Dub+Sub

salma3

7 | 8

30.9 ГБ

В этой теме нет новых непрочитанных сообщений. Братья Блюз 2000 / Blues Brothers 2000 [боевик, комедия, криминал, музыка, 1998] Blu-ray 1080p, Mvo+Sub

salma3

11 | 7

35.86 ГБ

В этой теме нет новых непрочитанных сообщений. Свадьба под прикрытием / Undercover Bridesmaid [Мелодрама, 2012] HDTVRip, Mvo

salma3

2 | 2

1.36 ГБ


Начать новую тему Ответить на тему  [ 1 сообщение ] 




Для Мосгорсуда, Роскомнадзора и рекламодателей:: mosgorsud-torrent[собачка]yandex.ru