Торрент файл
скачать торрент магнет ссылка Добавлен: 08 янв 2012, 21:59
Размер: 3.88 ГБ
Сидеров: 0
Личеров: 3
Автор

СообщениеДобавлено: 08 янв 2012, 21:59 

Не в сети
Супермодератор
Аватара пользователя
Дата регистрации:
11 апр 2010, 18:10
Спасибо: 5801 / 7
Сообщения: 56779
Иллюзия убийства / F/X

Перевод: Авторский (одноголосый)(Ю.Живов)
Cубтитры:Французские, испанские
Формат: DVD5, DVD Video, MPEG2, AC3
Страна: США
Режиссер: Роберт Мэндел
Жанр: Боевик, триллер, криминал
Продолжительность: 01:48:12
Год выпуска: 1985

В ролях: Брайан Браун, Брайан Деннехи, Дайан Венора, Клифф Де Янг, Мейсон Эдамс, Джерри Орбак, Джо Грифази, Марта Геман, Роско Орман, Трей Уилсон

Описание: В шоу-бизнесе нет лучшего мастера спецэффектов, чем Ролли Тайлер. Его уникальные способности создавать на экране грандиозные иллюзии приносят ему множество заказов от крупнейших студий Голливуда. На этот раз его заказчиком становится… Министерство юстиции.Суть дела: разыграть «убийство» важного свидетеля, дающего показания против теневых воротил. Задуманная постановка проходит как по маслу, но в результате осведомитель бесследно исчезает, а недоумевающему и ошеломленному Ролли «пришивают» убийство.Обманутый и преследуемый бывшими работодателями — Отделом полиции Нью-Йорка — Ролли быстро понимает, что никому не может доверять, и единственное средство сохранить жизнь — его несравнимое искусство мистификатора.

Рейтинг на КиноПоиск:7.515[/field]
Рейтинг MPAA :R[/field]
Рейтинг на IMDB:6.5/10[/field][/field]

Видео: 720x480, ( NTSC 16:9), MPEG2 Video, 29,970 кадр/сек, ~ 9 802 Кбит/сек
Аудио#1:Русский, 48,0 КГц, AC3, 2 канала(ов), ~224 Кбит/сек [Авторский (одноголосый) (Ю.Живов)]
Аудио#2:Английский, 48,0 КГц, AC3, 2 канала(ов), ~192 Кбит/сек [Оригинал][/field]


Полное имя: H:\Фильмы DVD\Иллюзия убийства 1_2 2 х DVD-5\Иллюзия убийства I\VIDEO_TS\VTS_01_1.VOB
Формат: MPEG-PS
Размер файла: 1024 Мбайт
Продолжительность: 28 м.
Общий поток: 5023 Кбит/сек
Видео
Идентификатор: 224 (0xE0)
Формат: MPEG Video
Версия формата: Version 2
Профиль формата: Main@Main
Параметр BVOP формата: Да
Параметр матрицы формата: По умолчанию
Продолжительность: 28 м.
Вид битрейта: Переменный
Битрейт: 4507 Кбит/сек
Номинальный битрейт: 9802 Кбит/сек
Ширина: 720 пикс.
Высота: 480 пикс.
Соотношение сторон: 4:3
Частота кадров: 29,970 кадр/сек
Стандарт вещания: NTSC
Цветовое пространство: YUV
Подвыборка цветности: 4:2:0
Битовая глубина: 8 бит
Метод сжатия: С потерями
Бит/(Пиксели*Кадры): 0.435
Размер потока: 919 Мбайт (90%)
Аудио #1
Идентификатор: 128 (0x80)
Формат: AC-3
Формат/Информация: Audio Coding 3
Профиль формата: Dolby Digital
Расширение режима: CM (complete main)
Продолжительность: 28 м.
Вид битрейта: Постоянный
Битрейт: 224 Кбит/сек
Канал(ы): 2 канала(ов)
Расположение каналов: Front: L R
Частота: 48,0 КГц
Битовая глубина: 16 бит
Метод сжатия: С потерями
Размер потока: 45,6 Мбайт (4%)
Аудио #2
Идентификатор: 129 (0x81)
Формат: AC-3
Формат/Информация: Audio Coding 3
Профиль формата: Dolby Digital
Расширение режима: CM (complete main)
Продолжительность: 28 м.
Вид битрейта: Постоянный
Битрейт: 192 Кбит/сек
Канал(ы): 2 канала(ов)
Расположение каналов: Front: L R
Частота: 48,0 КГц
Битовая глубина: 16 бит
Метод сжатия: С потерями
Размер потока: 39,1 Мбайт (4%)
Текст #1
Идентификатор: 224 (0xE0)-DVD-2
Формат: EIA-608
Режим смешивания: DVD-Video
Режим смешивания, доп. информаци : Muxed in Video #1
Размер потока: 0,00 байт (0%)
Текст #2
Идентификатор: 32 (0x20)
Формат: RLE
Формат/Информация: Run-length encoding
Текст #3
Идентификатор: 33 (0x21)
Формат: RLE
Формат/Информация: Run-length encoding
Меню



















Поделиться:




реклама партнёра


Вернуться к началу
 Профиль Отправить личное сообщение  
 
   Похожие торренты   Автор   Торрент   Размер 
В этой теме нет новых непрочитанных сообщений. Иллюзия убийства / F/X [боевик, триллер, криминал, 1986] BDRip 720p, Mvo+Avo+Sub

salma3

98 | 27

5.23 ГБ

В этой теме нет новых непрочитанных сообщений. Иллюзия убийства / F/X: The Series [s01] [криминал, 1996-1997] SATRip, Dvo

salma3

8 | 5

6.15 ГБ

В этой теме нет новых непрочитанных сообщений. Иллюзия убийства / F/X [Триллер, детектив, комедия, 1986] BDRip 1080p, Mvo+Avo+Sub

salma3

106 | 9

8.42 ГБ

В этой теме нет новых непрочитанных сообщений. Иллюзия обмана / Now You See Me [триллер, криминал, детектив, 2013] HDRip, Dub [iPad]

salma3

135 | 8

1.55 ГБ

В этой теме нет новых непрочитанных сообщений. Покровитель / The Protector [боевик, триллер, криминал, драма, 1985] DVDRip, Mvo

salma3

11 | 5

1.36 ГБ

В этой теме нет новых непрочитанных сообщений. Год Дракона / Year of the Dragon [боевик, триллер, драма, криминал, 1985] HDRip, Mvo

salma3

8 | 1

1.47 ГБ

В этой теме нет новых непрочитанных сообщений. Иллюзия обмана 2 / Now You See Me 2 [Боевик, триллер, комедия, 2016] HDRip, Dub [Лицензия]

salma3

340 | 10

1.45 ГБ


Начать новую тему Ответить на тему  [ 1 сообщение ] 




Для Мосгорсуда, Роскомнадзора и рекламодателей:: mosgorsud-torrent[собачка]yandex.ru