Торрент файл
скачать торрент магнет ссылка Добавлен: 08 янв 2012, 21:59
Размер: 3.97 ГБ
Сидеров: 1
Личеров: 4
Автор

СообщениеДобавлено: 08 янв 2012, 21:59 

Не в сети
Супермодератор
Аватара пользователя
Дата регистрации:
11 апр 2010, 18:10
Спасибо: 5801 / 7
Сообщения: 56779
Иллюзия убийства 2 / F/X2

Перевод: Авторский (одноголосый) (А.Гаврилов)
Субтитры: Французские, испанские
Формат: DVD5, DVD Video, MPEG2, AC3
Страна: США
Режиссер: Ричард Франклин
Жанр: Боевик, триллер, комедия, криминал
Продолжительность: 01:47:49
Год выпуска: 1991

В ролях: Брайан Браун, Брайан Деннехи, Рейчел Тикотин, Джоанна Глисон, Филип Боско, Кевин Дж. О’Коннор, Том Мэйсон, Доминик Зампрогна, Джосси Дегузман, Джон Уолш ...

Описание: Спустя пять лет после своего первого опасного приключения, Ролли Тайлер оставил бизнес спецэффектов и зарабатывает на жизнь проектированием мудреных электронных игрушек. За помощью к нему обращается бывший супруг его подружки — полицейский детектив. Полицейским нужно достоверно разыграть сцену, чтобы поймать серийного убийцу, и Ролли в очередной раз соблазняется опасным миром киноиллюзий. Совсем скоро он обнаруживает себя в смертельном капкане лжи и предательства. Чтобы разоблачить опасные замыслы преступников, он может полагаться только на свои изобретательные трюки и старую дружбу с детективом Лео Маккарти — если, конечно, сумеет остаться в живых…

Рейтинг на КиноПоиск:7.035[/field]
Рейтинг MPAA :PG-13[/field]
Рейтинг на IMDB:5.4/10[/field][/field]

Видео: 720x480, ( NTSC 16:9), MPEG2 Video, 29,970 кадр/сек, ~ 9 802 Кбит/сек
Аудио #1:Русский, 48,0 КГц, AC3, 2 канала(ов), ~224 Кбит/сек [Авторский (одноголосый) (А.Гаврилов)]
Аудио #2:Английский, 48,0 КГц, AC3, 2 канала(ов), ~192 Кбит/сек [Оригинал][/field]


Полное имя: H:\Фильмы DVD\Иллюзия убийства 1_2 2 х DVD-5\Иллюзия убийства II\VIDEO_TS\VTS_01_1.VOB
Формат: MPEG-PS
Размер файла: 1024 Мбайт
Продолжительность: 29 м.
Общий поток: 4801 Кбит/сек
Видео
Идентификатор: 224 (0xE0)
Формат: MPEG Video
Версия формата: Version 2
Профиль формата: Main@Main
Параметр BVOP формата: Да
Параметр матрицы формата: По умолчанию
Продолжительность: 29 м.
Вид битрейта: Переменный
Битрейт: 4290 Кбит/сек
Номинальный битрейт: 9802 Кбит/сек
Ширина: 720 пикс.
Высота: 480 пикс.
Соотношение сторон: 4:3
Частота кадров: 29,970 кадр/сек
Стандарт вещания: NTSC
Цветовое пространство: YUV
Подвыборка цветности: 4:2:0
Битовая глубина: 8 бит
Метод сжатия: С потерями
Бит/(Пиксели*Кадры): 0.414
Размер потока: 915 Мбайт (89%)
Аудио #1
Идентификатор: 128 (0x80)
Формат: AC-3
Формат/Информация: Audio Coding 3
Профиль формата: Dolby Digital
Расширение режима: CM (complete main)
Продолжительность: 29 м.
Вид битрейта: Постоянный
Битрейт: 224 Кбит/сек
Канал(ы): 2 канала(ов)
Расположение каналов: Front: L R
Частота: 48,0 КГц
Битовая глубина: 16 бит
Метод сжатия: С потерями
Размер потока: 47,8 Мбайт (5%)
Аудио #2
Идентификатор: 129 (0x81)
Формат: AC-3
Формат/Информация: Audio Coding 3
Профиль формата: Dolby Digital
Расширение режима: CM (complete main)
Продолжительность: 29 м.
Вид битрейта: Постоянный
Битрейт: 192 Кбит/сек
Канал(ы): 2 канала(ов)
Расположение каналов: Front: L R
Частота: 48,0 КГц
Битовая глубина: 16 бит
Метод сжатия: С потерями
Размер потока: 40,9 Мбайт (4%)
Текст #1
Идентификатор: 224 (0xE0)-DVD-2
Формат: EIA-608
Режим смешивания: DVD-Video
Режим смешивания, доп. информаци : Muxed in Video #1
Размер потока: 0,00 байт (0%)
Текст #2
Идентификатор: 32 (0x20)
Формат: RLE
Формат/Информация: Run-length encoding
Текст #3
Идентификатор: 33 (0x21)
Формат: RLE
Формат/Информация: Run-length encoding
Меню


















Поделиться:




реклама партнёра


Вернуться к началу
 Профиль Отправить личное сообщение  
 
   Похожие торренты   Автор   Торрент   Размер 
В этой теме нет новых непрочитанных сообщений. Иллюзия убийства / F/X [боевик, триллер, криминал, 1986] BDRip 720p, Mvo+Avo+Sub

salma3

98 | 27

5.23 ГБ

В этой теме нет новых непрочитанных сообщений. Иллюзия убийства / F/X [Триллер, детектив, комедия, 1986] BDRip 1080p, Mvo+Avo+Sub

salma3

106 | 9

8.42 ГБ

В этой теме нет новых непрочитанных сообщений. Иллюзия убийства / F/X: The Series [s01] [криминал, 1996-1997] SATRip, Dvo

salma3

8 | 5

6.15 ГБ

В этой теме нет новых непрочитанных сообщений. Напролом / The Hard Way [Боевик, комедия, криминал, 1991] DVD5, Mvo+Dvo+Avo+Sub

salma3

8 | 2

4.3 ГБ

В этой теме нет новых непрочитанных сообщений. Убийства во Фьелльбакке 5: Друзья на всю жизнь / Fjällbackamorden: Vänner för livet / Vanner for livet (Ричард Холм / Richard Holm) [2013г., Швеция, триллер, детектив, криминал, HDRip] VO

Alfredovich

20 | 8

1.46 ГБ

В этой теме нет новых непрочитанных сообщений. Иллюзия обмана 2 / Now You See Me 2 [Боевик, триллер, комедия, 2016] HDRip, Dub [Лицензия]

salma3

340 | 10

1.45 ГБ

В этой теме нет новых непрочитанных сообщений. Хаос / Chaos [Боевик, триллер, драма, криминал, 2005] BDRip, Avo [Гаврилов]

salma3

31 | 2

1.45 ГБ


Начать новую тему Ответить на тему  [ 1 сообщение ] 




Для Мосгорсуда, Роскомнадзора и рекламодателей:: mosgorsud-torrent[собачка]yandex.ru