Торрент файл
скачать торрент магнет ссылка Добавлен: 08 янв 2012, 21:57
Размер: 4.38 ГБ
Сидеров: 2
Личеров: 3
Автор

СообщениеДобавлено: 08 янв 2012, 21:57 

Не в сети
Супермодератор
Аватара пользователя
Дата регистрации:
11 апр 2010, 18:10
Спасибо: 5928 / 7
Сообщения: 56776
...иначе мы рассердимся! / ...Altrimenti ci arrabbiamo!

Перевод: Профессиональный (двухголосый)
Cубтитры:Итальянские
Формат: DVD5, DVD Video, MPEG2, AC3
Страна: Италия, Испания
Режиссер: Марчелло Фондато
Жанр: Боевик, комедия
Продолжительность: 01:37:35
Год выпуска: 1974

В ролях: Теренс Хилл, Бад Спенсер, Пэтти Шепард, Деогратиас Хуерта, Джон Шарп, Мануэль Де Блас, Луис Барберо, Дональд Плезенс, Эмилио Лагуна, Рафаэль Альбачин

Описание: Жил да был один мафиози местного значения. И задумал он, по совету своего верного психолога, возвыситься, разорив беззащитный парк аттракционов и построив на его месте огромный небоскрёб. И всё бы у него получилось, если бы под горячую руку распоясавшихся рэкетиров не попалась дюна-багги, любимый автомобиль двух приятелей — голубоглазого красавца и медведоподобного толстяка. И всё бы ничего, — ведь каждый может ошибиться, — так нет же! Загордился мафиози, заупрямился, несчастный, на свою голову, — не захотел платить по счетам!

Рейтинг на КиноПоиск:7.443[/field]
Рейтинг на IMDB:7.1/10[/field][/field]

Видео: 720x576, ( PAL 16:9), MPEG2 Video, 25,000 кадр/сек, ~ 5580 Кбит/сек
Аудио #1: Итальянский, 48,0 КГц, AC3, 2 канала(ов), ~192 Кбит/сек[Оригинал]
Аудио #2: Русский, 48,0 КГц, AC3, 2 канала(ов), ~192 Кбит/сек [Профессиональный (двухголосый)]
Аудио #3: Английский, 48,0 КГц, AC3, 2 канала(ов), ~192 Кбит/сек[/field]


Полное имя: D:\ТЕРЕНС ХИЛЛ И БАД СПЕНСЕР\Иначе мы рассердимся (1974 DVD5)\VIDEO_TS\VTS_01_1.VOB
Формат: MPEG-PS
Размер файла: 1024 Мбайт
Продолжительность: 22 м.
Общий поток: 6281 Кбит/сек
Библиотека кодирования: encoded by TMPGEnc (ver. 2.524.63.181)
Видео
Идентификатор: 224 (0xE0)
Формат: MPEG Video
Версия формата: Version 2
Профиль формата: Main@Main
Параметр BVOP формата: Да
Параметр матрицы формата: По умолчанию
Продолжительность: 22 м.
Вид битрейта: Переменный
Битрейт: 5580 Кбит/сек
Ширина: 720 пикс.
Высота: 576 пикс.
Соотношение сторон: 2,35:1
Частота кадров: 25,000 кадр/сек
Стандарт вещания: PAL
Цветовое пространство: YUV
Подвыборка цветности: 4:2:0
Битовая глубина: 8 бит
Метод сжатия: С потерями
Бит/(Пиксели*Кадры): 0.538
Размер потока: 910 Мбайт (89%)
Библиотека кодирования: TMPGEnc 2.524.63.181
Аудио #1
Идентификатор: 128 (0x80)
Формат: AC-3
Формат/Информация: Audio Coding 3
Расширение режима: CM (complete main)
Продолжительность: 22 м.
Вид битрейта: Постоянный
Битрейт: 192 Кбит/сек
Канал(ы): 2 канала(ов)
Расположение каналов: Front: L R
Частота: 48,0 КГц
Битовая глубина: 16 бит
Метод сжатия: С потерями
Задержка видео: -8 мс.
Размер потока: 31,3 Мбайт (3%)
Аудио #2
Идентификатор: 129 (0x81)
Формат: AC-3
Формат/Информация: Audio Coding 3
Расширение режима: CM (complete main)
Продолжительность: 22 м.
Вид битрейта: Постоянный
Битрейт: 192 Кбит/сек
Канал(ы): 2 канала(ов)
Расположение каналов: Front: L R
Частота: 48,0 КГц
Битовая глубина: 16 бит
Метод сжатия: С потерями
Задержка видео: -8 мс.
Размер потока: 31,3 Мбайт (3%)
Аудио #3
Идентификатор: 130 (0x82)
Формат: AC-3
Формат/Информация: Audio Coding 3
Расширение режима: CM (complete main)
Продолжительность: 22 м.
Вид битрейта: Постоянный
Битрейт: 192 Кбит/сек
Канал(ы): 2 канала(ов)
Расположение каналов: Front: L R
Частота: 48,0 КГц
Битовая глубина: 16 бит
Метод сжатия: С потерями
Задержка видео: -8 мс.
Размер потока: 31,3 Мбайт (3%)
Меню
























Поделиться:




реклама партнёра


Вернуться к началу
 Профиль Отправить личное сообщение  
 
   Похожие торренты   Автор   Торрент   Размер 
В этой теме нет новых непрочитанных сообщений. ...иначе мы рассердимся / ...altrimenti ci arrabbiamo! [Боевик, комедия, 1974] BDRip, Dvo

salma3

62 | 2

1.63 ГБ

В этой теме нет новых непрочитанных сообщений. Новобранцы идут на войну / Les bidasses s'en vont en guerre [комедия, приключения, военный, 1974] DVD5, Dub

salma3

7 | 4

3.8 ГБ

В этой теме нет новых непрочитанных сообщений. Человек с золотым пистолетом / The Man with the Golden Gun [боевик, триллер, комедия, 1974] BDRip-AVC, Mvo

salma3

27 | 21

2.35 ГБ

В этой теме нет новых непрочитанных сообщений. Девочки свингеры из команды поддержки / The Swinging Cheerleaders [Комедия, боевик, 1974] DVDRip, Avo

salma3

85 | 6

1.37 ГБ

В этой теме нет новых непрочитанных сообщений. Бамбуковые боги и стальные бойцы / Bamboo Gods and Iron Men [Боевик, драма, комедия, криминал, приключения, 1974] DVDRip, Avo

salma3

47 | 7

745.3 МБ

В этой теме нет новых непрочитанных сообщений. Красный райдинг 1974 / Red Riding 1974 [детектив, 2009] BDRip 720p, Dvo+Sub

salma3

83 | 9

4.04 ГБ

В этой теме нет новых непрочитанных сообщений. Вздымающийся ад / The Towering Inferno [боевик, 1974] BDRip 1080p, Mvo+Avo+Sub

salma3

7 | 6

15.09 ГБ


Начать новую тему Ответить на тему  [ 1 сообщение ] 




Для Мосгорсуда, Роскомнадзора и рекламодателей:: mosgorsud-torrent[собачка]yandex.ru