Торрент файл
скачать торрент магнет ссылка Добавлен: 08 янв 2012, 21:56
Размер: 4.36 ГБ
Сидеров: 6
Личеров: 6
Автор

СообщениеДобавлено: 08 янв 2012, 21:56 

Не в сети
Супермодератор
Аватара пользователя
Дата регистрации:
11 апр 2010, 18:10
Спасибо: 5801 / 7
Сообщения: 56779
Двое: Я и моя тень / It Takes Two

Перевод: Профессиональный (многоголосый, закадровый)
Cубтитры: Английские, русские
Формат: DVD5, DVD Video, MPEG2, AC3
Страна: США
Режиссер: Энди Теннант
Жанр: Мелодрама, комедия, семейный
Продолжительность: 01:41:00
Год выпуска: 1995

В ролях: Мэри-Кейт Олсен, Эшли Олсен, Кёрсти Элли, Стив Гуттенберг, Филип Боско, Джейн Сиббетт, Мишель Грисом, Десмонд Робертсон, Тайни Миллс, Шанелль Генри

Описание: Живут на свете две удивительно похожие друг на друга девочки: болтушка и непоседа Аманда и тихая, спокойная Элисса. Они не сестрички. Их похожесть — ирония судьбы. Одна растет в сиротском приюте под опекой доброй воспитательницы Дианы, а другая — с очень богатым отцом-одиночкой. Папу хочет женить на себе противная и корыстолюбивая особа. Но к счастью, две девочки встречаются в летнем лагере и принимают решение предотвратить намечающийся брак по расчету, а заодно и влюбить папу в хорошую воспитательницу Диану. Для осуществления своих планов девочки на время меняются местами…

Рейтинг на КиноПоиск:7.624[/field]
Рейтинг MPAA:PG-13[/field]
Рейтинг на IMDB:5.0/10[/field][/field]

Видео: 720x480 (NTSC 4:3), MPEG2 Video, 29,970 кадр/сек, ~ 7500 Кбит/сек
Аудио #1: Русский, 48,0 КГц, AC3, 2 канала(ов), ~192 Кбит/сек [Авторский] А.Гаврилов
Аудио #2: Русский, 48,0 КГц, AC3, 6 канала(ов), ~384 Кбит/сек [Профессиональный (многоголосый закадровый)] Телеканал СТС
Аудио #3: Английский, 48,0 КГц, AC3, 6 канала(ов), ~384 Кбит/сек [Оригинал][/field]


Полное имя: H:\Фильмы DVD\Двое я и моя тень DVD-5\VIDEO_TS\VTS_01_1.VOB
Формат: MPEG-PS
Размер файла: 1024 Мбайт
Продолжительность: 24 м.
Общий поток: 5922 Кбит/сек
Видео
Идентификатор: 224 (0xE0)
Формат: MPEG Video
Версия формата: Version 2
Профиль формата: Main@Main
Параметр BVOP формата: Да
Параметр матрицы формата: По умолчанию
Продолжительность: 24 м.
Вид битрейта: Переменный
Битрейт: 4844 Кбит/сек
Номинальный битрейт: 7500 Кбит/сек
Ширина: 720 пикс.
Высота: 480 пикс.
Соотношение сторон: 4:3
Частота кадров: 29,970 кадр/сек
Стандарт вещания: NTSC
Цветовое пространство: YUV
Подвыборка цветности: 4:2:0
Битовая глубина: 8 бит
Метод сжатия: С потерями
Бит/(Пиксели*Кадры): 0.468
Размер потока: 837 Мбайт (82%)
Аудио #1
Идентификатор: 128 (0x80)
Формат: AC-3
Формат/Информация: Audio Coding 3
Расширение режима: CM (complete main)
Продолжительность: 24 м.
Вид битрейта: Постоянный
Битрейт: 192 Кбит/сек
Канал(ы): 2 канала(ов)
Расположение каналов: Front: L R
Частота: 48,0 КГц
Битовая глубина: 16 бит
Метод сжатия: С потерями
Задержка видео: -83 мс.
Размер потока: 33,2 Мбайт (3%)
Аудио #2
Идентификатор: 129 (0x81)
Формат: AC-3
Формат/Информация: Audio Coding 3
Расширение режима: CM (complete main)
Продолжительность: 24 м.
Вид битрейта: Постоянный
Битрейт: 384 Кбит/сек
Канал(ы): 6 канала(ов)
Расположение каналов: Front: L C R, Side: L R, LFE
Частота: 48,0 КГц
Битовая глубина: 16 бит
Метод сжатия: С потерями
Задержка видео: -83 мс.
Размер потока: 66,4 Мбайт (6%)
Аудио #3
Идентификатор: 130 (0x82)
Формат: AC-3
Формат/Информация: Audio Coding 3
Расширение режима: CM (complete main)
Продолжительность: 24 м.
Вид битрейта: Постоянный
Битрейт: 384 Кбит/сек
Канал(ы): 6 канала(ов)
Расположение каналов: Front: L C R, Side: L R, LFE
Частота: 48,0 КГц
Битовая глубина: 16 бит
Метод сжатия: С потерями
Задержка видео: -83 мс.
Размер потока: 66,4 Мбайт (6%)
Текст #1
Идентификатор: 224 (0xE0)-DVD-2
Формат: EIA-608
Режим смешивания: DVD-Video
Режим смешивания, доп. информаци : Muxed in Video #1
Размер потока: 0,00 байт (0%)
Текст #2
Идентификатор: 32 (0x20)
Формат: RLE
Формат/Информация: Run-length encoding
Текст #3
Идентификатор: 33 (0x21)
Формат: RLE
Формат/Информация: Run-length encoding






















Поделиться:




реклама партнёра


Вернуться к началу
 Профиль Отправить личное сообщение  
 
   Похожие торренты   Автор   Торрент   Размер 
В этой теме нет новых непрочитанных сообщений. Любой ценой / Whatever It Takes [драма, мелодрама, комедия, 2000] DVDRip, Mvo

salma3

64 | 9

1.46 ГБ

В этой теме нет новых непрочитанных сообщений. Флюк / Fluke [фэнтези, драма, семейный, 1995] DVD5, Dub+Sub

salma3

8 | 5

4.04 ГБ

В этой теме нет новых непрочитанных сообщений. Моя новая машина / It Takes Two [комедия, 1988] SATRip, Dvo

salma3

0 | 0

1.36 ГБ

В этой теме нет новых непрочитанных сообщений. Двое во вселенной / La corrispondenza [Драма, мелодрама, 2016] BDRip 1080p, Dub [НТВ+]

salma3

57 | 19

14.26 ГБ

В этой теме нет новых непрочитанных сообщений. Двое / Deux (Клод Зиди / Claude Zidi) [1989г., мелодрама, драма, DVDRip] MVO

Alfredovich

6 | 3

1.46 ГБ

В этой теме нет новых непрочитанных сообщений. Гость / Houseguest [комедия, семейный, 1995] DVDRip, Mvo+Avo

salma3

34 | 4

1.46 ГБ

В этой теме нет новых непрочитанных сообщений. Азбука футбола / The Big Green [комедия, семейный, спорт, 1995] SATRip, Avo

salma3

13 | 2

1.47 ГБ


Начать новую тему Ответить на тему  [ 1 сообщение ] 




Для Мосгорсуда, Роскомнадзора и рекламодателей:: mosgorsud-torrent[собачка]yandex.ru