Торрент файл
скачать торрент магнет ссылка Добавлен: 08 янв 2012, 21:56
Размер: 4.04 ГБ
Сидеров: 0
Личеров: 5
Автор

СообщениеДобавлено: 08 янв 2012, 21:56 

Не в сети
Супермодератор
Аватара пользователя
Дата регистрации:
11 апр 2010, 18:10
Спасибо: 5799 / 7
Сообщения: 56779
Джек убийца великанов / Jack the Giant Killer

Перевод: Любительский (одноголосый)
Cубтитры: Английские, французские, испанские
Формат: DVD5, DVD Video, MPEG2, AC3
Страна: США
Режиссер: Натан Юран
Жанр: Фэнтези, приключения, семейный
Продолжительность: 01:34:32
Год выпуска: 1962

В ролях: Кервин Мэтьюз, Джуди Мередит, Торин Тэтчер, Уолтер Бурк, Дон Беддоу, Бэрри Келли, Дейтон Ламмис, Анна Ли, Роджер Мобли, Роберт Гист

Описание: Злобный чародей Пендрагон метит на трон Корнуолла, намереваясь украсть королевскую дочку и жениться на ней. С помощью своего подручного великана он похищает принцессу, но на её счастье великан попадается на глаза деревенскому парню, решившему помочь девушке.

Рейтинг IMDB: 6.6/10
Рейтинг Кинопоиск.RU:8.46
Рейтинг MPAA:G

Видео: 720x480, (NTSC 4:3), MPEG2 Video, 29,970 кадр/сек, ~ 5485 Кбит/сек
Аудио #1: Русский, 48,0 КГц, AC3, 2 канала(ов), ~192 Кбит/сек [Любительский (одноголосый, закадровый)] Cтудия "Трамвай-фильм"
Аудио #2: Английский, 48,0 КГц, AC3,2 канала(ов), ~192 Кбит/сек[Оригинал]


Полное имя: H:\Фильмы DVD\Джек убийца великанов DVD-5\VIDEO_TS\VTS_01_1.VOB
Формат: MPEG-PS
Размер файла: 1024 Мбайт
Продолжительность: 23 м.
Общий поток: 5989 Кбит/сек
Видео
Идентификатор: 224 (0xE0)
Формат: MPEG Video
Версия формата: Version 2
Профиль формата: Main@Main
Параметр BVOP формата: Да
Параметр матрицы формата: По умолчанию
Продолжительность: 23 м.
Вид битрейта: Переменный
Битрейт: 5485 Кбит/сек
Ширина: 720 пикс.
Высота: 480 пикс.
Соотношение сторон: 4:3
Частота кадров: 29,970 кадр/сек
Стандарт вещания: NTSC
Цветовое пространство: YUV
Подвыборка цветности: 4:2:0
Битовая глубина: 8 бит
Метод сжатия: С потерями
Бит/(Пиксели*Кадры): 0.530
Размер потока: 938 Мбайт (92%)
Аудио #1
Идентификатор: 128 (0x80)
Формат: AC-3
Формат/Информация: Audio Coding 3
Расширение режима: CM (complete main)
Продолжительность: 23 м.
Вид битрейта: Постоянный
Битрейт: 192 Кбит/сек
Канал(ы): 2 канала(ов)
Расположение каналов: Front: L R
Частота: 48,0 КГц
Битовая глубина: 16 бит
Метод сжатия: С потерями
Задержка видео: -66 мс.
Размер потока: 32,8 Мбайт (3%)
Аудио #2
Идентификатор: 129 (0x81)
Формат: AC-3
Формат/Информация: Audio Coding 3
Расширение режима: CM (complete main)
Продолжительность: 23 м.
Вид битрейта: Постоянный
Битрейт: 192 Кбит/сек
Канал(ы): 2 канала(ов)
Расположение каналов: Front: L R
Частота: 48,0 КГц
Битовая глубина: 16 бит
Метод сжатия: С потерями
Задержка видео: -66 мс.
Размер потока: 32,8 Мбайт (3%)
Текст #1
Идентификатор: 224 (0xE0)-DVD-2
Формат: EIA-608
Режим смешивания: DVD-Video
Режим смешивания, доп. информаци : Muxed in Video #1
Размер потока: 0,00 байт (0%)
Текст #2
Идентификатор: 32 (0x20)
Формат: RLE
Формат/Информация: Run-length encoding
Текст #3
Идентификатор: 33 (0x21)
Формат: RLE
Формат/Информация: Run-length encoding
Текст #4
Идентификатор: 34 (0x22)
Формат: RLE
Формат/Информация: Run-length encoding
Меню






















Поделиться:




реклама партнёра


Вернуться к началу
 Профиль Отправить личное сообщение  
 
   Похожие торренты   Автор   Торрент   Размер 
В этой теме нет новых непрочитанных сообщений. Jack The Giant Killer - The Drowning King [EP] [февраль 2011, Metalcore, Deathcore, MP3]

PriZraK

0 | 1

22.8 МБ

В этой теме нет новых непрочитанных сообщений. Джеймс и гигантский персик / James and the Giant Peach [Мюзикл, фэнтези, приключения, семейный, 1996] BDRip 1080p, 2Mvo+Sub

salma3

18 | 5

9.18 ГБ

В этой теме нет новых непрочитанных сообщений. Черный Джек / Black Jack [комедия, приключения, 1979] HDRip, Avo

salma3

245 | 70

1.46 ГБ

В этой теме нет новых непрочитанных сообщений. Бешеный Джек Пират / Mad Jack the Pirate [S01] [Мультсериал, приключения, комедия, 1988-1989] SATRip, Dub

salma3

25 | 4

3.78 ГБ

В этой теме нет новых непрочитанных сообщений. Под псевдонимом: Джек Стронг / Джек Стронг / Jack Strong (Владислав Пасиковский) [2014, Шпионский триллер, BDRip-AVC]

Nickolas3435

277 | 7

2.4 ГБ

В этой теме нет новых непрочитанных сообщений. Под псевдонимом: Джек Стронг / Джек Стронг / Jack Strong [боевик, драма, криминал, детектив, биография, 2014] HDRip, Avo

salma3

269 | 6

1.37 ГБ

В этой теме нет новых непрочитанных сообщений. Я не серийный убийца / I Am Not a Serial Killer [триллер, 2016] WEB-DL 1080p, mvo

marya111

38 | 4

4.4 ГБ


Начать новую тему Ответить на тему  [ 1 сообщение ] 




Для Мосгорсуда, Роскомнадзора и рекламодателей:: mosgorsud-torrent[собачка]yandex.ru