Торрент файл
скачать торрент магнет ссылка Добавлен: 08 янв 2012, 21:55
Размер: 3.77 ГБ
Сидеров: 0
Личеров: 2
Автор

СообщениеДобавлено: 08 янв 2012, 21:55 

Не в сети
Супермодератор
Аватара пользователя
Дата регистрации:
11 апр 2010, 18:10
Спасибо: 5960 / 7
Сообщения: 56765
К-911 / К-911


Перевод: Профессиональный (двухголосый)
Субтитры: Отсутствуют
Формат: DVD5, DVD Video, MPEG2, AC3
Страна: США
Режиссер: Чарлз Т. Кэнгэнис
Жанр: Боевик, комедия, криминал
Продолжительность: 01:27:34
Год выпуска: 1999

В ролях: Джеймс Белуши, Кристин Туччи, Джеймс Хэнди, Уэйд Уильямс, Дж.Дж. Джонстон, Джо Палесе, Скотч Эллис Лоринг, Винсент Кастелланос, Тимолео Фллоко, Джо Сабатино

Описание: Заслуженный детектив Дули и его верный напарник, настоящий полицейский пес Джерри Ли, по — прежнему стоят на страже порядка, оберегая покой добропорядочных граждан. Эта легендарная полицейская пара уже давно съела собаку в деле отлова и последующего наказания преступников всех мастей. Управление полиции решило оказать поддержку героическому тандему «К-9» в их нелегком деле, определив им в помощь двух образцовых сотрудников и очаровательную даму — детектива по имени Уэллес и ее свирепого партнера, вышколенного добермана по кличке Зевс. Всему этому разношерстному полицейскому квартету предстоит трудное задание по поимке опаснейшего преступника.

Рейтинг на КиноПоиск:6.980[/field]
Рейтинг MPAA:PG-13[/field]
Рейтинг на IMDB:5.0/10[/field][/field]

Видео: 720x576, (PAL 16:9), MPEG2 Video,25,000 кадр/сек, ~ 7500 Кбит/сек
Аудио #1:Русский, 48,0 КГц, AC3,2 канала(ов), ~448 Кбит/сек [Профессиональный (двухголосый)]
Аудио #2:Английский, 48,0 КГц, AC3, 2 канала(ов), ~448 Кбит/сек [Оригинал][/field]


Полное имя: D:\K911\VIDEO_TS\VTS_01_1.VOB
Формат: MPEG-PS
Размер файла: 1024 Мбайт
Продолжительность: 22 м.
Общий поток: 6288 Кбит/сек
Видео
Идентификатор: 224 (0xE0)
Формат: MPEG Video
Версия формата: Version 2
Профиль формата: Main@Main
Параметр BVOP формата: Да
Параметр матрицы формата: По умолчанию
Продолжительность: 22 м.
Вид битрейта: Переменный
Битрейт: 5267 Кбит/сек
Номинальный битрейт: 7500 Кбит/сек
Ширина: 720 пикс.
Высота: 576 пикс.
Соотношение сторон: 16:9
Частота кадров: 25,000 кадр/сек
Стандарт вещания: PAL
Цветовое пространство: YUV
Подвыборка цветности: 4:2:0
Битовая глубина: 8 бит
Тип развёртки: Чересстрочная
Порядок развёртки: Верхнее поле первое
Метод сжатия: С потерями
Бит/(Пиксели*Кадры): 0.508
Размер потока: 858 Мбайт (84%)
Аудио #1
Идентификатор: 128 (0x80)
Формат: AC-3
Формат/Информация: Audio Coding 3
Расширение режима: CM (complete main)
Продолжительность: 22 м.
Вид битрейта: Постоянный
Битрейт: 448 Кбит/сек
Канал(ы): 2 канала(ов)
Расположение каналов: Front: L R
Частота: 48,0 КГц
Битовая глубина: 16 бит
Метод сжатия: С потерями
Размер потока: 72,9 Мбайт (7%)
Аудио #2
Идентификатор: 129 (0x81)
Формат: AC-3
Формат/Информация: Audio Coding 3
Расширение режима: CM (complete main)
Продолжительность: 4 с. 224 мс.
Вид битрейта: Постоянный
Битрейт: 448 Кбит/сек
Канал(ы): 2 канала(ов)
Расположение каналов: Front: L R
Частота: 48,0 КГц
Битовая глубина: 16 бит
Метод сжатия: С потерями
Размер потока: 231 Кбайт (0%)
Меню






















Поделиться:




реклама партнёра


Вернуться к началу
 Профиль Отправить личное сообщение  
 
   Похожие торренты   Автор   Торрент   Размер 
В этой теме нет новых непрочитанных сообщений. К-911: Собачья работа 2 / K-911 [боевик, комедия, криминал, 1999] BDRip 720p, Mvo

salma3

53 | 37

4.91 ГБ

В этой теме нет новых непрочитанных сообщений. Бриллиантовый полицейский / Blue Streak [боевик, триллер, комедия, криминал, 1999] BDRip, Dub

salma3

76 | 5

1.46 ГБ

В этой теме нет новых непрочитанных сообщений. Последний танец / One Last Dance [боевик, мелодрама, комедия, криминал, 2006] DVD5, Mvo+Sub

salma3

31 | 4

4.02 ГБ

В этой теме нет новых непрочитанных сообщений. Мачо и ботан 2 / 22 Jump Street [комедия, боевик, криминал, 2014] DVD5, Dub+Sub [сжатый]

salma3

51 | 3

4.36 ГБ

В этой теме нет новых непрочитанных сообщений. Бюро убийств / The Assassination Bureau [боевик, триллер, комедия, криминал, приключения, 1969] DVD5, Mvo

salma3

0 | 3

4.36 ГБ

В этой теме нет новых непрочитанных сообщений. Беспредельный террор / Terror Firmer [ужасы, триллер, комедия, 1999] DVD5, Dvo

salma3

20 | 9

3.93 ГБ

В этой теме нет новых непрочитанных сообщений. Контракт Киллера / The Contract [боевик, криминал, 1999] DVDRip, Dvo

salma3

7 | 2

1.41 ГБ


Начать новую тему Ответить на тему  [ 1 сообщение ] 




Для Мосгорсуда, Роскомнадзора и рекламодателей:: mosgorsud-torrent[собачка]yandex.ru