Торрент файл
скачать торрент магнет ссылка Добавлен: 08 янв 2012, 21:55
Размер: 4.36 ГБ
Сидеров: 1
Личеров: 4
Автор

СообщениеДобавлено: 08 янв 2012, 21:55 

Не в сети
Супермодератор
Аватара пользователя
Дата регистрации:
11 апр 2010, 18:10
Спасибо: 5802 / 7
Сообщения: 56779
Алмазы Килиманджаро (Сокровища белой богини) / Diamonds of Kilimandjaro (The Treasure of the White Goddess)

Перевод: Авторский (одноголосый)
Субтитры: Отсутствуют
Формат: DVD5, DVD Video, MPEG2, AC3
Страна: Франция,Испания
Режиссер: Иисус Франко, Оливье Мато
Жанр: Ужасы, боевик, приключения
Продолжительность: 01:35:32
Год выпуска: 1983

В ролях: Катя Бинерт, Антонио Маянс, Алина Месс, Албино Гразиани, Явиер Маиза, Оливье Мато, Мари Кармен, Ниэто, Дэниэл Уайт, Лина Ромэй, Дэниэл Кац

Описание: Девочка Диана из Англии пропала много лет назад в джунглях Африки, выжила и стала белой богиней в племени Мабуто. Через 15 лет умирающая мать собирает небольшую экспедицию, чтобы найти дочь, но некоторые из участников экспедиции оказались бандитами и преследуют цель найти драгоценности этого племени

Рейтинг на КиноПоиск:5.556[/field]
Рейтинг на IMDB:3.1/10[/field][/field]

Видео: 720x480, ( NTSC 16:9), MPEG2 Video,29,970 кадр/сек, ~ 7500 Кбит/сек
Аудио #1:Русский, 48,0 КГц, AC3,2 канала(ов), ~192 Кбит/сек [Авторский (одноголосый) (А. Алексеев)]
Аудио #2:Французский, 48,0 КГц, AC3, 2 канала(ов), ~192 Кбит/сек [Оригинал]
Аудио #3:Английский, 48,0 КГц, AC3, 2 канала(ов), ~192 Кбит/сек[/field]


Полное имя: I:\Фильмы DVD\Ихние\Алмазы Килиманджаро DVD-5\VIDEO_TS\VTS_01_1.VOB
Формат: MPEG-PS
Размер файла: 1024 Мбайт
Продолжительность: 25 м.
Общий поток: 5726 Кбит/сек
Видео
Идентификатор: 224 (0xE0)
Формат: MPEG Video
Версия формата: Version 2
Профиль формата: Main@Main
Параметр BVOP формата: Да
Параметр матрицы формата: По умолчанию
Параметры GOP формата: M=3, N=13
Продолжительность: 25 м.
Вид битрейта: Постоянный
Битрейт: 5036 Кбит/сек
Номинальный битрейт: 7500 Кбит/сек
Ширина: 720 пикс.
Высота: 480 пикс.
Соотношение сторон: 2,35:1
Частота кадров: 29,970 кадр/сек
Стандарт вещания: NTSC
Цветовое пространство: YUV
Подвыборка цветности: 4:2:0
Битовая глубина: 8 бит
Тип развёртки: Чересстрочная
Порядок развёртки: Верхнее поле первое
Метод сжатия: С потерями
Бит/(Пиксели*Кадры): 0.486
Размер потока: 901 Мбайт (88%)
Аудио #1
Идентификатор: 128 (0x80)
Формат: AC-3
Формат/Информация: Audio Coding 3
Расширение режима: CM (complete main)
Продолжительность: 25 м.
Вид битрейта: Постоянный
Битрейт: 192 Кбит/сек
Канал(ы): 2 канала(ов)
Расположение каналов: Front: L R
Частота: 48,0 КГц
Битовая глубина: 16 бит
Метод сжатия: С потерями
Размер потока: 34,3 Мбайт (3%)
Аудио #2
Идентификатор: 129 (0x81)
Формат: AC-3
Формат/Информация: Audio Coding 3
Расширение режима: CM (complete main)
Продолжительность: 25 м.
Вид битрейта: Постоянный
Битрейт: 192 Кбит/сек
Канал(ы): 2 канала(ов)
Расположение каналов: Front: L R
Частота: 48,0 КГц
Битовая глубина: 16 бит
Метод сжатия: С потерями
Размер потока: 34,3 Мбайт (3%)
Аудио #3
Идентификатор: 130 (0x82)
Формат: AC-3
Формат/Информация: Audio Coding 3
Расширение режима: CM (complete main)
Продолжительность: 25 м.
Вид битрейта: Постоянный
Битрейт: 192 Кбит/сек
Канал(ы): 2 канала(ов)
Расположение каналов: Front: L R
Частота: 48,0 КГц
Битовая глубина: 16 бит
Метод сжатия: С потерями
Размер потока: 34,3 Мбайт (3%)
Меню
























Поделиться:




реклама партнёра


Вернуться к началу
 Профиль Отправить личное сообщение  
 
   Похожие торренты   Автор   Торрент   Размер 
В этой теме нет новых непрочитанных сообщений. Сокровища ацтеков / The Lost Treasure of the Grand Canyon [ужасы, фэнтези, приключения, 2008] BDRip, Mvo

salma3

112 | 35

1.45 ГБ

В этой теме нет новых непрочитанных сообщений. Лето белой воды / White Water Summer [драма, приключения, 1987] WEB-DL 720p, Mvo

salma3

14 | 4

3.23 ГБ

В этой теме нет новых непрочитанных сообщений. Сокровища государства / Treasure state (Эндрю Уист / Andrew Wiest) [2013г., приключения, WEB-DL 1080p] MVO

Alfredovich

12 | 0

2.13 ГБ

В этой теме нет новых непрочитанных сообщений. Олли и сокровища пиратов / Dive Olly Dive and the Pirate Treasure [мультфильм, семейный, детский, 2014] DVD5, Dub [лицензия]

Dracon

48 | 31

3.27 ГБ

В этой теме нет новых непрочитанных сообщений. Atlantean Kodex - The White Goddess [2013, Epic Heavy Metal, Doom Metal, MP3]

PriZraK

0 | 1

128.56 МБ

В этой теме нет новых непрочитанных сообщений. Олли и сокровища пиратов / Dive Olly Dive and the Pirate Treasure [мультфильм, семейный, детский, 2014] DVDRip, Dub [лицензия]

Dracon

767 | 24

1.46 ГБ

В этой теме нет новых непрочитанных сообщений. Олли и сокровища пиратов / Dive Olly Dive and the Pirate Treasure (Боб Дусетте, Гари Херст, Боб Бакстер) [мультфильм, семейный, детский, 2014] WEB-DLRip, Dub [лицензия]

Dracon

12 | 2

1.37 ГБ


Начать новую тему Ответить на тему  [ 1 сообщение ] 




Для Мосгорсуда, Роскомнадзора и рекламодателей:: mosgorsud-torrent[собачка]yandex.ru