Торрент файл
скачать торрент магнет ссылка Добавлен: 08 янв 2012, 21:55
Размер: 4.17 ГБ
Сидеров: 0
Личеров: 5
Автор

СообщениеДобавлено: 08 янв 2012, 21:55 

Не в сети
Супермодератор
Аватара пользователя
Дата регистрации:
11 апр 2010, 18:10
Спасибо: 5963 / 7
Сообщения: 56762
А ну-ка, девочка, разденься! / Geh, zieh dein Dirndl aus

Перевод: Профессиональный (многоголосый, закадровый)
Субтитры: отсутствуют
Формат: DVD5, DVD Video, MPEG2, AC3
Страна: Германия (ФРГ)
Режиссер: Зиги Ротемунд
Жанр: Комедия
Продолжительность: 01:19:44
Год выпуска: 1973

В ролях: Элизабет Фолькманн, Александр Грилль, Мари Экорре, Ринальдо Таламонти, Рауль Ретцер, Доротея Рау, Майя Хоппе, Элизабет Фельхнер, Юрген Шиллинг, Юлиане Ром-Зок

Описание: На тирольской ферме Зонхоф жизнь идет своим чередом: радушные юные крестьянки ухаживают за хозяйством, а их самих обхаживают удалые местные ловеласы. Пока новая хозяйка, наивная городская фифа, любуется петушками да курочками, ее сосед Флориан хочет завладеть фермой и для этого у него есть коварный романтический план! Ему мог бы помочь знойный итальянец Пармезано, случайно оказавшийся на ферме, но у этого бабника нешуточная проблема — сейчас он должен притворяться геем, а у таких игр бывают рискованные последствия

Рейтинг на КиноПоиск:4.405[/field]
Рейтинг на IMDB:4.6/10[/field][/field]

Доп. информация: Фильм снял режиссёр Зигфрид Роземунд - создатель легендарной "Греческой смоковницы"

Видео: 720x576, ( PAL 4:3), MPEG2 Video, 25,000 кадр/сек, ~ 9000 Кбит/сек
Аудио: Русский 48,0 КГц, AC3, 2 канала(ов), ~192 Кбит/сек [Профессиональный (многоголосый закадровый)]


Полное имя: I:\Фильмы DVD\Ихние\А ну-ка девочка разденься DVD-5\VIDEO_TS\VTS_01_1.VOB
Формат: MPEG-PS
Размер файла: 1024 Мбайт
Продолжительность: 19 м.
Общий поток: 7212 Кбит/сек
Видео
Идентификатор: 224 (0xE0)
Формат: MPEG Video
Версия формата: Version 2
Профиль формата: Main@Main
Параметр BVOP формата: Да
Параметр матрицы формата: По умолчанию
Продолжительность: 19 м.
Вид битрейта: Переменный
Битрейт: 6877 Кбит/сек
Номинальный битрейт: 9000 Кбит/сек
Ширина: 720 пикс.
Высота: 576 пикс.
Соотношение сторон: 4:3
Частота кадров: 25,000 кадр/сек
Стандарт вещания: PAL
Цветовое пространство: YUV
Подвыборка цветности: 4:2:0
Битовая глубина: 8 бит
Тип развёртки: Чересстрочная
Порядок развёртки: Нижнее поле первое
Метод сжатия: С потерями
Бит/(Пиксели*Кадры): 0.663
Размер потока: 976 Мбайт (95%)
Аудио
Идентификатор: 128 (0x80)
Формат: AC-3
Формат/Информация: Audio Coding 3
Расширение режима: CM (complete main)
Продолжительность: 19 м.
Вид битрейта: Постоянный
Битрейт: 192 Кбит/сек
Канал(ы): 2 канала(ов)
Расположение каналов: Front: L R
Частота: 48,0 КГц
Битовая глубина: 16 бит
Метод сжатия: С потерями
Размер потока: 27,3 Мбайт (3%)
Меню




















Поделиться:




реклама партнёра


Вернуться к началу
 Профиль Отправить личное сообщение  
 
   Похожие торренты   Автор   Торрент   Размер 
В этой теме нет новых непрочитанных сообщений. Несмотря ни на что / Mein Blind Date mit dem Leben (Марк Ротемунд / Marc Rothemund) [2017г., Германия, комедия, драма, HDRip] MVO

Alfredovich

0 | 0

2.05 ГБ

В этой теме нет новых непрочитанных сообщений. Dirty-Tina - Ich will dein Teenie-Sperma (2015) HD 720p

Dile-1

5 | 2

309.84 МБ

В этой теме нет новых непрочитанных сообщений. [MyDirtyHobby.com] MaryHaze (Dirndl bitch swallow your sperm!) [2016 г., Amateur, Blowjob, Clothed sex, Cum in mouth, Deepthroat, Gagging, 1080p]

salma3

19 | 0

87.66 МБ

В этой теме нет новых непрочитанных сообщений. Разденься для убийцы / Nude per l'assassino / Strip Nude for Your Killer [триллер, детектив, 1975] BDRemux 1080p, Avo

salma3

3 | 5

18.61 ГБ

В этой теме нет новых непрочитанных сообщений. Надеемся, что будет девочка / Speriamo che sia femmina [драма, комедия, 1986] DVDRip, Avo

salma3

103 | 23

1.45 ГБ

В этой теме нет новых непрочитанных сообщений. Бедная богатая девочка / Young Adult [драма, комедия, 2011] BDRip-AVC, Dub

salma3

29 | 11

744.09 МБ

В этой теме нет новых непрочитанных сообщений. Консьерж / Le Concierge [комедия, 1973] DVDRip, Dvo

salma3

12 | 2

1.48 ГБ


Начать новую тему Ответить на тему  [ 1 сообщение ] 




Для Мосгорсуда, Роскомнадзора и рекламодателей:: mosgorsud-torrent[собачка]yandex.ru