Торрент файл
скачать торрент магнет ссылка Добавлен: 08 янв 2012, 21:55
Размер: 4.35 ГБ
Сидеров: 0
Личеров: 5
Автор

СообщениеДобавлено: 08 янв 2012, 21:55 

Не в сети
Супермодератор
Аватара пользователя
Дата регистрации:
11 апр 2010, 18:10
Спасибо: 5802 / 7
Сообщения: 56779
Альпийские страсти / Alpengluhn im Dirndlrock


Перевод: Профессиональный (многоголосый, закадровый)
Субтитры: Отсутствуют
Формат: DVD5, DVD Video, MPEG2, AC3
Страна: Германия (ФРГ)
Режиссер: Зиги Ротемунд
Жанр: Комедия
Продолжительность: 01:19:34
Год выпуска: 1974

В ролях: Элизабет Фолькманн, Ринальдо Таламонти, Катарина Конти, Юрген Файндт, Ульрике Батц, Элизабет Фельхнер, Йорг Нэйджел, Эрих Падалевски, Вернер Рёглин

Описание: В деревушке Фогельбрюн пиво течет рекой, погреба ломятся от колбас, а пышные баварские красотки водят хороводы и не прочь позабавиться с местными парнями. И лишь одного не хватает этому альпийскому раю для полного счастья — стать городом. Если скоро здесь не появятся семь новых жителей, не видать деревушке ни туристов, ни деньжат. Местная молодежь, а с ними и похотливые дочки мэра, с удовольствием поддержат ударный почин, но у них есть грозный противник — Лига Высокой Морали. Тем временем, в Фогельбрюн уже едет инкогнито дотошный инспектор, чтобы проверить, готовы ли находчивые баварцы стать горожанами…

Рейтинг на КиноПоиск:5.778
Рейтинг на IMDB:3.6/10

Видео: 720x576, ( PAL 4:3), MPEG2 Video, 25,000 кадр/сек, ~ 9000 Кбит/сек
Аудио: Русский, 48,0 КГц, AC3, 2 канала(ов), ~192 Кбит/сек [Профессиональный (многоголосый закадровый)]


Полное имя: I:\Фильмы DVD\Ихние\Альпийские страсти DVD-5\VIDEO_TS\VTS_01_1.VOB
Формат: MPEG-PS
Размер файла: 1024 Мбайт
Продолжительность: 17 м.
Общий поток: 8351 Кбит/сек
Видео
Идентификатор: 224 (0xE0)
Формат: MPEG Video
Версия формата: Version 2
Профиль формата: Main@Main
Параметр BVOP формата: Да
Параметр матрицы формата: По умолчанию
Продолжительность: 17 м.
Вид битрейта: Переменный
Битрейт: 7993 Кбит/сек
Номинальный битрейт: 9000 Кбит/сек
Ширина: 720 пикс.
Высота: 576 пикс.
Соотношение сторон: 4:3
Частота кадров: 25,000 кадр/сек
Стандарт вещания: PAL
Цветовое пространство: YUV
Подвыборка цветности: 4:2:0
Битовая глубина: 8 бит
Тип развёртки: Чересстрочная
Порядок развёртки: Нижнее поле первое
Метод сжатия: С потерями
Бит/(Пиксели*Кадры): 0.771
Размер потока: 980 Мбайт (96%)
Аудио
Идентификатор: 128 (0x80)
Формат: AC-3
Формат/Информация: Audio Coding 3
Расширение режима: CM (complete main)
Продолжительность: 17 м.
Вид битрейта: Постоянный
Битрейт: 192 Кбит/сек
Канал(ы): 2 канала(ов)
Расположение каналов: Front: L R
Частота: 48,0 КГц
Битовая глубина: 16 бит
Метод сжатия: С потерями
Размер потока: 23,5 Мбайт (2%)
Меню























Поделиться:




реклама партнёра


Вернуться к началу
 Профиль Отправить личное сообщение  
 
   Похожие торренты   Автор   Торрент   Размер 
В этой теме нет новых непрочитанных сообщений. Новобранцы идут на войну / Les bidasses s'en vont en guerre [комедия, приключения, военный, 1974] DVD5, Dub

salma3

7 | 3

3.8 ГБ

В этой теме нет новых непрочитанных сообщений. Красный райдинг 1974 / Red Riding 1974 [детектив, 2009] BDRip 720p, Dvo+Sub

salma3

83 | 9

4.04 ГБ

В этой теме нет новых непрочитанных сообщений. Пряности и страсти / The Hundred-Foot Journey [Комедия, 2014] HDRip, Dub [iTunes]

Dracon

181 | 69

2.05 ГБ

В этой теме нет новых непрочитанных сообщений. Пряности и страсти / The Hundred-Foot Journey [Комедия, 2014] HDRip, dub [Чистый звук]

Dracon

4 | 2

1.46 ГБ

В этой теме нет новых непрочитанных сообщений. Пряности и страсти / The Hundred-Foot Journey [Драма, комедия, 2014] BDRip-AVC, Dub [iTunes]

Dracon

550 | 93

2.12 ГБ

В этой теме нет новых непрочитанных сообщений. Пряности и страсти / The Hundred-Foot Journey [Комедия, 2014] BDRip 720p, Dub [iTunes]

Dracon

60 | 2

4.99 ГБ

В этой теме нет новых непрочитанных сообщений. Пряности и страсти / The Hundred-Foot Journey [Драма, комедия, 2014] BDRip 1080p, Dub [iTunes]

Dracon

0 | 56

12.27 ГБ


Начать новую тему Ответить на тему  [ 1 сообщение ] 




Для Мосгорсуда, Роскомнадзора и рекламодателей:: mosgorsud-torrent[собачка]yandex.ru