Торрент файл
скачать торрент магнет ссылка Добавлен: 08 янв 2012, 21:53
Размер: 4.3 ГБ
Сидеров: 0
Личеров: 6
Автор

СообщениеДобавлено: 08 янв 2012, 21:53 

Не в сети
Супермодератор
Аватара пользователя
Дата регистрации:
11 апр 2010, 18:10
Спасибо: 5962 / 7
Сообщения: 56765
Кабаре / Cabaret

Перевод: Профессиональный (многоголосый, закадровый)
Cубтитры:Русские
Формат: DVD5, DVD Video, MPEG2, AC3
Страна: США
Режиссер: Боб Фосси
Жанр: Мюзикл, драма, музыка
Продолжительность: 01:58:27
Год выпуска: 1972

В ролях: Лайза Миннелли, Майкл Йорк, Хельмут Грим, Джоэл Грей, Фриц Веппер, Мариза Беренсон, Елисабет Ньюманн-Вертел, Хелен Вита, Сигрид фон Рихтхофен, Герд Весперманн

Описание: Американская певица Салли Боулз (Лайза Минелли) развлекает Берлин эпохи Веймарской республики на подмостках кабаре Kit-Kat club. За дверями клуба — политический и экономический хаос, восхождение к власти нацистов, еврейские погромы. Внутри — вечный праздник. Перемены в относительно беззаботную жизнь Салли вносят встреча с Брайаном (Майкл Йорк) — англичанином, подрабатывающим уроками, которые он дает богатой молодой еврейке, и Максом — богатым немецким плейбоем.

Рейтинг на КиноПоиск:8.102[/field]
Рейтинг MPAA:PG-13[/field]
Рейтинг на IMDB:7.8/10[/field][/field]

Видео: 720x576, (PAL 4:3), MPEG2 Video,25,000 кадр/сек, ~ 9800 Кбит/сек
Аудио #1:Русский, 48,0 КГц, AC3,6 канала(ов), ~384 Кбит/сек Профессиональный (многоголосый, закадровый)]
Аудио #2:Английский, 48,0 КГц, AC3, 6 канала(ов), ~448 Кбит/сек [Оригинал][/field]


Полное имя: D:\Кабаре DVD-5\VIDEO_TS\VTS_01_1.VOB
Формат: MPEG-PS
Размер файла: 1024 Мбайт
Продолжительность: 27 м.
Общий поток: 5128 Кбит/сек
Видео
Идентификатор: 224 (0xE0)
Формат: MPEG Video
Версия формата: Version 2
Профиль формата: Main@Main
Параметр BVOP формата: Да
Параметр матрицы формата: По умолчанию
Продолжительность: 27 м.
Вид битрейта: Переменный
Битрейт: 4194 Кбит/сек
Номинальный битрейт: 9800 Кбит/сек
Ширина: 720 пикс.
Высота: 576 пикс.
Соотношение сторон: 4:3
Частота кадров: 25,000 кадр/сек
Стандарт вещания: PAL
Цветовое пространство: YUV
Подвыборка цветности: 4:2:0
Битовая глубина: 8 бит
Тип развёртки: Чересстрочная
Порядок развёртки: Верхнее поле первое
Метод сжатия: С потерями
Бит/(Пиксели*Кадры): 0.405
Размер потока: 837 Мбайт (82%)
Аудио #1
Идентификатор: 128 (0x80)
Формат: AC-3
Формат/Информация: Audio Coding 3
Расширение режима: CM (complete main)
Продолжительность: 27 м.
Вид битрейта: Постоянный
Битрейт: 384 Кбит/сек
Канал(ы): 6 канала(ов)
Расположение каналов: Front: L C R, Side: L R, LFE
Частота: 48,0 КГц
Битовая глубина: 16 бит
Метод сжатия: С потерями
Размер потока: 76,7 Мбайт (7%)
Аудио #2
Идентификатор: 129 (0x81)
Формат: AC-3
Формат/Информация: Audio Coding 3
Расширение режима: CM (complete main)
Продолжительность: 27 м.
Вид битрейта: Постоянный
Битрейт: 448 Кбит/сек
Канал(ы): 6 канала(ов)
Расположение каналов: Front: L C R, Side: L R, LFE
Частота: 48,0 КГц
Битовая глубина: 16 бит
Метод сжатия: С потерями
Размер потока: 89,4 Мбайт (9%)
Текст
Идентификатор: 32 (0x20)
Формат: RLE
Формат/Информация: Run-length encoding
Меню


























Оскар, 1973 год
Победитель 8:
* Лучшая женская роль (Лайза Миннелли)
* Лучшая мужская роль второго плана (Джоэл Грей)
* Лучший режиссер (Боб Фосси)
* Лучшая работа оператора
* Лучшие декорации
* Лучший звук
* Лучший монтаж
* Лучшая музыкальная адаптация
Номинации (2):
* Лучший фильм
* Лучший адаптированный сценарий
Золотой глобус, 1973 год
Победитель (3):
* Лучшая женская роль (комедия или мюзикл) (Лайза Миннелли)
* Лучший фильм (комедия или мюзикл)
* Лучшая мужская роль второго плана (Джоэл Грей)
Номинации (6):
* Лучшая женская роль второго плана (Мариза Беренсон)
* Лучший режиссер (Боб Фосси)
* Лучший сценарий
* Лучшая песня — «Mein Herr»
* Лучшая песня — «Money, Money»
* Самый многообещающий новичок среди женщин (Мариза Беренсон)
Британская академия, 1973 год
Победитель (7):
* Лучший фильм
* Лучшая женская роль (Лайза Миннелли)
* Лучший режиссер (Боб Фосси)
* Лучшая работа оператора
* Лучшая работа художника
* Лучший саундтрек
* Лучший новичок (Джоэл Грей)
Номинации (4):
* Лучшая женская роль второго плана (Мариза Беренсон)
* Лучший сценарий
* Лучшие костюмы
* Лучший монтаж

Поделиться:




реклама партнёра


Вернуться к началу
 Профиль Отправить личное сообщение  
 
   Похожие торренты   Автор   Торрент   Размер 
В этой теме нет новых непрочитанных сообщений. Большой веселый мюзикл / The Big Gay Musical [Комедия, мюзикл, драма, мелодрама, музыка, 2009] BDRip 720p, Avo+Sub

salma3

20 | 5

3.82 ГБ

В этой теме нет новых непрочитанных сообщений. Человек из Ла Манчи / Man of La Mancha [мюзикл, фэнтези, драма, 1972] HDTV 1080i, Dvo

salma3

63 | 20

4.95 ГБ

В этой теме нет новых непрочитанных сообщений. У моря / Beyond the Sea [драма, музыка, биография, мюзикл, 2004] BDRip-AVC, Dub+Sub

salma3

51 | 18

2.91 ГБ

В этой теме нет новых непрочитанных сообщений. Весь этот джаз / All That Jazz [мюзикл, фэнтези, драма, музыка, 1979] BDRip 720p, 2Mvo+2Avo+Sub

salma3

22 | 6

7.29 ГБ

В этой теме нет новых непрочитанных сообщений. Весь этот джаз / All That Jazz [мюзикл, фэнтези, драма, музыка, 1979] BDRip 1080p, 2Mvo+2Avo+Sub

salma3

9 | 5

16.66 ГБ

В этой теме нет новых непрочитанных сообщений. У моря / Beyond the Sea [драма, музыка, биография, мюзикл, 2004] 2004, BDRemux 1080р, Dub+Sub

salma3

25 | 18

19.38 ГБ

В этой теме нет новых непрочитанных сообщений. Сумасшедшие на стадионе / Les fous du stade [комедия,спорт, 1972] DVD5, DUB+MVO

salma3

4 | 3

4.35 ГБ


Начать новую тему Ответить на тему  [ 1 сообщение ] 




Для Мосгорсуда, Роскомнадзора и рекламодателей:: mosgorsud-torrent[собачка]yandex.ru