Торрент файл
скачать торрент магнет ссылка Добавлен: 08 янв 2012, 21:53
Размер: 4.19 ГБ
Сидеров: 1
Личеров: 5
Автор

СообщениеДобавлено: 08 янв 2012, 21:53 

Не в сети
Супермодератор
Аватара пользователя
Дата регистрации:
11 апр 2010, 18:10
Спасибо: 5802 / 7
Сообщения: 56779
Как выйти замуж за миллионера / How to Marry a Millionaire

Перевод: Профессиональный (многоголосый, закадровый)
Cубтитры: отсутствуют
Формат: DVD5, DVD Video, MPEG2, AC3
Страна: США
Режиссер: Жан Негулеско
Жанр: Драма, мелодрама, комедия
Продолжительность: 01:35:37
Год выпуска: 1953

В ролях: Бетти Грэйбл, Мэрилин Монро, Лорен Бэколл, Дэвид Уэйн, Рори Кэлхун, Кэмерон Митчелл, Александр Д’Арси, Фред Кларк, Уильям Пауэлл, Джордж Данн

Описание: Нью-Йорк слезам не верит. Традиционная ситуация: три модели-блондинки ищут мужей-миллионеров. Для осуществления своих планов девушки снимают шикарную квартиру в элитном районе и начинают осуществлять задуманное. Проходят три месяца — из квартиры продана последняя мебель, а на горизонте — ни одной подходящей партии. К финалу картины страсти накаляются, у двух подруг возникает дилемма: деньги или любовь? Лишь у третьей, на первый взгляд, все складывается хорошо. Но это лишь — на первый взгляд.

Рейтинг на КиноПоиск:7.623[/field]
Рейтинг на IMDB:6.9/10[/field][/field]

Видео: 720x480, (NTSC 16:9), MPEG2 Video, 23,976 кадр/сек, ~ 9800 Кбит/сек
Аудио#1: Русский, 48,0 КГц, AC3, 2 канала(ов), ~448 Кбит/сек [Профессиональный (многоголосый закадровый)]
Аудио#2: Английский, 48,0 КГц, AC3,2 канала(ов), ~448 Кбит/сек [Оригинал][/field]

Доп. информация: Релиз на DVD 25 сентября 2008, «Двадцатый Век Фокс СНГ»

Британская академия, 1955 год
Номинации (1):
* Лучший фильм
Оскар, 1954 год
Номинации (1):
* Лучшая работа костюмера (цветные фильмы)

Полное имя: D:\Как выйти замуж за миллионера DVD-5\VIDEO_TS\VTS_01_2.VOB
Формат: MPEG-PS
Размер файла: 1000 Мбайт
Продолжительность: 22 м.
Общий поток: 6110 Кбит/сек
Видео
Идентификатор: 224 (0xE0)
Формат: MPEG Video
Версия формата: Version 2
Профиль формата: Main@Main
Параметр BVOP формата: Да
Параметр матрицы формата: По умолчанию
Параметры GOP формата: M=3, N=12
Продолжительность: 22 м.
Вид битрейта: Переменный
Битрейт: 5093 Кбит/сек
Номинальный битрейт: 9800 Кбит/сек
Ширина: 720 пикс.
Высота: 480 пикс.
Соотношение сторон: 16:9
Частота кадров: 23,976 кадр/сек
Стандарт вещания: Component
Цветовое пространство: YUV
Подвыборка цветности: 4:2:0
Битовая глубина: 8 бит
Тип развёртки: Прогрессивная
Порядок развёртки: 2:3 Pulldown
Метод сжатия: С потерями
Бит/(Пиксели*Кадры): 0.615
Размер потока: 833 Мбайт (83%)
Аудио #1
Идентификатор: 128 (0x80)
Формат: AC-3
Формат/Информация: Audio Coding 3
Расширение режима: CM (complete main)
Продолжительность: 22 м.
Вид битрейта: Постоянный
Битрейт: 448 Кбит/сек
Канал(ы): 2 канала(ов)
Расположение каналов: Front: L R
Частота: 48,0 КГц
Битовая глубина: 16 бит
Метод сжатия: С потерями
Задержка видео: -267 мс.
Размер потока: 73,3 Мбайт (7%)
Аудио #2
Идентификатор: 129 (0x81)
Формат: AC-3
Формат/Информация: Audio Coding 3
Расширение режима: CM (complete main)
Продолжительность: 22 м.
Вид битрейта: Постоянный
Битрейт: 448 Кбит/сек
Канал(ы): 2 канала(ов)
Расположение каналов: Front: L R
Частота: 48,0 КГц
Битовая глубина: 16 бит
Метод сжатия: С потерями
Задержка видео: -267 мс.
Размер потока: 73,3 Мбайт (7%)
Текст
Идентификатор: 224 (0xE0)-DVD-2
Формат: EIA-608
Режим смешивания: DVD-Video
Режим смешивания, доп. информаци : Muxed in Video #1
Размер потока: 0,00 байт (0%)
Меню






















Поделиться:




реклама партнёра


Вернуться к началу
 Профиль Отправить личное сообщение  
 
   Похожие торренты   Автор   Торрент   Размер 
В этой теме нет новых непрочитанных сообщений. Как выйти замуж за миллионера-2 [S02] (Наталья Хлопецкая) [Комедия, мелодрама, 2013] WEB-DL 1080p

Dracon

62 | 10

16.3 ГБ

В этой теме нет новых непрочитанных сообщений. Как выйти замуж за миллионера [02x01-12 из 12] (Наталья Хлопецкая) [Комедия, мелодрама, 2013] SATRip

Dracon

421 | 66

6.46 ГБ

В этой теме нет новых непрочитанных сообщений. Как выйти замуж за 3 дня / Leap Year [мелодрама, комедия, 2010] BDRip 720p, Dub+Dvo+Avo+Sub

salma3

92 | 7

4.56 ГБ

В этой теме нет новых непрочитанных сообщений. Выйти замуж любой ценой [01-04 из 04] (Мелодрама, 2016) WEB-DLRip от Files-x

marya111

0 | 0

2.14 ГБ

В этой теме нет новых непрочитанных сообщений. Срочно выйду замуж [Комедия, мелодрама, 2015] WEB-DLRip

Dracon

20002 | 1353

1.46 ГБ

В этой теме нет новых непрочитанных сообщений. Срочно выйду замуж [Комедия, мелодрама, 2015] WEB-DL 720p

Dracon

2697 | 127

3.16 ГБ

В этой теме нет новых непрочитанных сообщений. Как развести миллионера [01-04 из 04] [Комедия, 2014] SATRip

Dracon

490 | 25

2.09 ГБ


Начать новую тему Ответить на тему  [ 1 сообщение ] 




Для Мосгорсуда, Роскомнадзора и рекламодателей:: mosgorsud-torrent[собачка]yandex.ru