Торрент файл
скачать торрент магнет ссылка Добавлен: 08 янв 2012, 21:53
Размер: 4.36 ГБ
Сидеров: 4
Личеров: 6
Автор

СообщениеДобавлено: 08 янв 2012, 21:53 

Не в сети
Супермодератор
Аватара пользователя
Дата регистрации:
11 апр 2010, 18:10
Спасибо: 5994 / 7
Сообщения: 56686
Каникулы Петрова и Васечкина, обыкновенные и невероятные (2 серии из 2)

Перевод: Не требуется
Субтитры: отсутствуют
Формат: DVD5, DVD Video, MPEG2, AC3
Страна: CCCP
Режиссер: Владимир Алеников
Жанр: Мюзикл, фэнтези, комедия, семейный
Продолжительность: 01:05:21+01:09:36
Год выпуска: 1984

В ролях: Егор Дружинин, Дмитрий Барков, Инга Ильм, Гоги Замбахидзе, Михаил Салов, Алексей Исаев, Анастасия Уланова, Наташа Казакевич, Елена Делибаш, Александра Камона

Описание: Музыкальная кинокомедия о веселых приключениях двух друзей — Васи Петрова и Пети Васечкина, знакомых по фильму «Приключения Петрова и Васечкина». Неистощимые на выдумки ребята, ученики четвертого класса, повзрослели, но с ними каждый день опять что-нибудь да приключается, даже во время летних каникул…

Рейтинг на КиноПоиск:7.847[/field]
Рейтинг на IMDB:8.1/10[/field][/field]

Видео: 720x576, ( PAL 4:3), MPEG2 Video, 25,000 кадр/сек, ~ 8500 Кбит/сек
Аудио: Русский, 48,0 КГц, AC3, 2 канала(ов), ~192 Кбит/сек


Полное имя: I:\Фильмы DVD\Наши\Каникулы Петрова и Васечкина DVD-5\VIDEO_TS\VTS_02_1.VOB
Формат: MPEG-PS
Размер файла: 1024 Мбайт
Продолжительность: 31 м.
Общий поток: 4538 Кбит/сек
Видео
Идентификатор: 224 (0xE0)
Формат: MPEG Video
Версия формата: Version 2
Профиль формата: Main@Main
Параметр BVOP формата: Да
Параметр матрицы формата: По умолчанию
Параметры GOP формата: M=3, N=12
Продолжительность: 31 м.
Вид битрейта: Переменный
Битрейт: 4256 Кбит/сек
Номинальный битрейт: 8500 Кбит/сек
Ширина: 720 пикс.
Высота: 576 пикс.
Соотношение сторон: 4:3
Частота кадров: 25,000 кадр/сек
Стандарт вещания: PAL
Цветовое пространство: YUV
Подвыборка цветности: 4:2:0
Битовая глубина: 8 бит
Тип развёртки: Чересстрочная
Порядок развёртки: Верхнее поле первое
Метод сжатия: С потерями
Бит/(Пиксели*Кадры): 0.411
Размер потока: 960 Мбайт (94%)
Аудио
Идентификатор: 128 (0x80)
Формат: AC-3
Формат/Информация: Audio Coding 3
Расширение режима: CM (complete main)
Продолжительность: 31 м.
Вид битрейта: Постоянный
Битрейт: 192 Кбит/сек
Канал(ы): 2 канала(ов)
Расположение каналов: Front: L R
Частота: 48,0 КГц
Битовая глубина: 16 бит
Метод сжатия: С потерями
Задержка видео: -80 мс.
Размер потока: 43,3 Мбайт (4%)
Меню



















Поделиться:



Вернуться к началу
 Профиль Отправить личное сообщение  
 
   Похожие торренты   Автор   Торрент   Размер 
В этой теме нет новых непрочитанных сообщений. Красавица и чудовище / Beauty and the Beast [Мюзикл, фэнтези, мелодрама, семейный, 2017] DVD5, Dub

salma3

95 | 28

4.37 ГБ

В этой теме нет новых непрочитанных сообщений. Моана / Moana (мультфильм, мюзикл, фэнтези, комедия, приключения, семейный, 2016) TS | D

marya111

3946 | 438

1.37 ГБ

В этой теме нет новых непрочитанных сообщений. Тролли / Trolls (мультфильм, мюзикл, фэнтези, комедия, приключения, семейный, 2016) BDRip от ExKinoRay | iTunes

marya111

190 | 47

1.42 ГБ

В этой теме нет новых непрочитанных сообщений. Тролли / Trolls (мультфильм, мюзикл, фэнтези, комедия, приключения, семейный, 2016) WEB-DLRip от Scarabey | iTunes

marya111

6588 | 946

1.45 ГБ

В этой теме нет новых непрочитанных сообщений. Тролли / Trolls (мультфильм, мюзикл, фэнтези, комедия, приключения, семейный, 2016) BDRip-AVC от R.G.Resident | iTunes

marya111

299 | 37

2.11 ГБ

В этой теме нет новых непрочитанных сообщений. Тролли / Trolls (Мультфильм, мюзикл, фэнтези, комедия, приключения, семейный, 2016) BDRemux 1080p от ExKinoRay | iTunes

marya111

55 | 38

20.33 ГБ

В этой теме нет новых непрочитанных сообщений. Моана / Moana (Мультфильм, мюзикл, фэнтези, комедия, приключения, семейный, полнометражный, 2016) BDRip-AVC от OlLanDGroup | iTunes Russia

marya111

423 | 79

745.69 МБ


Начать новую тему Ответить на тему  [ 1 сообщение ] 




Для Мосгорсуда, Роскомнадзора и рекламодателей:: mosgorsud-torrent[собачка]yandex.ru
cron