Торрент файл
скачать торрент магнет ссылка Добавлен: 08 янв 2012, 21:53
Размер: 4.36 ГБ
Сидеров: 2
Личеров: 4
Автор

СообщениеДобавлено: 08 янв 2012, 21:53 

Не в сети
Супермодератор
Аватара пользователя
Дата регистрации:
11 апр 2010, 18:10
Спасибо: 5802 / 7
Сообщения: 56779
Каникулы Петрова и Васечкина, обыкновенные и невероятные (2 серии из 2)

Перевод: Не требуется
Субтитры: отсутствуют
Формат: DVD5, DVD Video, MPEG2, AC3
Страна: CCCP
Режиссер: Владимир Алеников
Жанр: Мюзикл, фэнтези, комедия, семейный
Продолжительность: 01:05:21+01:09:36
Год выпуска: 1984

В ролях: Егор Дружинин, Дмитрий Барков, Инга Ильм, Гоги Замбахидзе, Михаил Салов, Алексей Исаев, Анастасия Уланова, Наташа Казакевич, Елена Делибаш, Александра Камона

Описание: Музыкальная кинокомедия о веселых приключениях двух друзей — Васи Петрова и Пети Васечкина, знакомых по фильму «Приключения Петрова и Васечкина». Неистощимые на выдумки ребята, ученики четвертого класса, повзрослели, но с ними каждый день опять что-нибудь да приключается, даже во время летних каникул…

Рейтинг на КиноПоиск:7.847[/field]
Рейтинг на IMDB:8.1/10[/field][/field]

Видео: 720x576, ( PAL 4:3), MPEG2 Video, 25,000 кадр/сек, ~ 8500 Кбит/сек
Аудио: Русский, 48,0 КГц, AC3, 2 канала(ов), ~192 Кбит/сек


Полное имя: I:\Фильмы DVD\Наши\Каникулы Петрова и Васечкина DVD-5\VIDEO_TS\VTS_02_1.VOB
Формат: MPEG-PS
Размер файла: 1024 Мбайт
Продолжительность: 31 м.
Общий поток: 4538 Кбит/сек
Видео
Идентификатор: 224 (0xE0)
Формат: MPEG Video
Версия формата: Version 2
Профиль формата: Main@Main
Параметр BVOP формата: Да
Параметр матрицы формата: По умолчанию
Параметры GOP формата: M=3, N=12
Продолжительность: 31 м.
Вид битрейта: Переменный
Битрейт: 4256 Кбит/сек
Номинальный битрейт: 8500 Кбит/сек
Ширина: 720 пикс.
Высота: 576 пикс.
Соотношение сторон: 4:3
Частота кадров: 25,000 кадр/сек
Стандарт вещания: PAL
Цветовое пространство: YUV
Подвыборка цветности: 4:2:0
Битовая глубина: 8 бит
Тип развёртки: Чересстрочная
Порядок развёртки: Верхнее поле первое
Метод сжатия: С потерями
Бит/(Пиксели*Кадры): 0.411
Размер потока: 960 Мбайт (94%)
Аудио
Идентификатор: 128 (0x80)
Формат: AC-3
Формат/Информация: Audio Coding 3
Расширение режима: CM (complete main)
Продолжительность: 31 м.
Вид битрейта: Постоянный
Битрейт: 192 Кбит/сек
Канал(ы): 2 канала(ов)
Расположение каналов: Front: L R
Частота: 48,0 КГц
Битовая глубина: 16 бит
Метод сжатия: С потерями
Задержка видео: -80 мс.
Размер потока: 43,3 Мбайт (4%)
Меню



















Поделиться:




реклама партнёра


Вернуться к началу
 Профиль Отправить личное сообщение  
 
   Похожие торренты   Автор   Торрент   Размер 
В этой теме нет новых непрочитанных сообщений. Спасти Санту / Saving Santa [мультфильм, мюзикл, комедия, семейный, 2013] DVD5, Dub [Лицензия]

Dracon

6 | 4

4.13 ГБ

В этой теме нет новых непрочитанных сообщений. Чем дальше в лес / Into the Woods (Роб Маршалл) [Мюзикл, фэнтези, комедия, семейный, 2014] DVDScr, avo+sub

Dracon

512 | 80

1.88 ГБ

В этой теме нет новых непрочитанных сообщений. Моана / Moana (мультфильм, мюзикл, фэнтези, комедия, приключения, семейный, 2016) TS | D

marya111

3157 | 395

1.37 ГБ

В этой теме нет новых непрочитанных сообщений. Чем дальше в лес... / Into the Woods (Роб Маршалл) [Фэнтези, комедия, семейный, мюзикл, 2014] HDRip, Dub [iTunes]

Dracon

335 | 11

1.37 ГБ

В этой теме нет новых непрочитанных сообщений. Чем дальше в лес / Into the Woods (Роб Маршалл) [Фэнтези, комедия, семейный, мюзикл, 2014] HDRip-AVC, Dub+Sub [iTunes]

Dracon

313 | 24

2.17 ГБ

В этой теме нет новых непрочитанных сообщений. Чем дальше в лес... / Into the Woods (Роб Маршалл) [Фэнтези, комедия, семейный, мюзикл, 2014] BDRip 720p, Dub+Sub [iTunes]

Dracon

155 | 6

6.39 ГБ

В этой теме нет новых непрочитанных сообщений. Чем дальше в лес / Into the Woods (Роб Маршалл) [2014, мюзикл, фэнтези, комедия, семейный, HDRip] Dub чистый звук

Nickolas3435

1432 | 55

1.46 ГБ


Начать новую тему Ответить на тему  [ 1 сообщение ] 




Для Мосгорсуда, Роскомнадзора и рекламодателей:: mosgorsud-torrent[собачка]yandex.ru