Торрент файл
скачать торрент магнет ссылка Добавлен: 08 янв 2012, 21:52
Размер: 4.06 ГБ
Сидеров: 1
Личеров: 5
Автор

СообщениеДобавлено: 08 янв 2012, 21:52 

Не в сети
Супермодератор
Аватара пользователя
Дата регистрации:
11 апр 2010, 18:10
Спасибо: 5960 / 7
Сообщения: 56765
Капитан Синдбад / Captain Sindbad

Перевод: Профессиональный (многоголосый, закадровый)
Субтитры: отсутствуют
Формат: DVD5, DVD Video, MPEG2, AC3
Страна: США, Германия (ФРГ)
Режиссер: Байрон Хэскин
Жанр: Фэнтези, боевик, приключения
Продолжительность: 01:25:08
Год выпуска: 1963
В ролях: Гай Уильямс, Хайди Брюль, Педро Армендарис, Абрахам Софаер, Берни Хэмилтон, Хельмут Шнайдер, Маргарет Яхнен, Рольф Ванка, Уолтер Барнс, Джеймс Добсон

Описание: Корабль отважного капитана Синдбада-морехода держит путь к славному городу Баристану, в котором встречи с отважным моряком ждёт прекрасная принцесса Джана. Но злой правитель страны Эль Керим не хочет этой встречи, потому что давно выбрал Джану себе в жёны, и намерен поскорее сыграть свадьбу. Эль Керим задумал погубить Синдбада. От придворного волшебника Галго Джана узнаёт об опасности, грозящей Синдбаду. Она просит Галго превратить её в птицу, чтобы вылететь навстречу моряку и предупредить его об опасности. Галго выполняет её просьбу, но Синдбад не догадывается, зачем к нему прилетела эта красивая птичка. А в это время Эль Керим направляет в море огромных сильных птиц-воинов, которые сбрасывают на корабль Синдбада громадные камни. Корабль разбит, но морякам удаётся спастись. Рыбаки подбирают отважного Синдбада…

Рейтинг на КиноПоиск:6.314[/field]
Рейтинг MPAA :G[/field]
Рейтинг на IMDB:4.9/10[/field][/field]

Видео: 720x480, (NTSC 16:9), MPEG2 Video, 29,970 кадр/сек, ~ 8000 Кбит/сек
Аудио #1:Русский, 48,0 КГц, AC3, 2 канала(ов), ~192 Кбит/сек [Профессиональный (двухголосый, закадровый)]НТВ+
Аудио #2:Русский, 48,0 КГц, AC3, 2 канала(ов), ~192 Кбит/сек [Профессиональный (многоголосый закадровый)]
Аудио #3:Английский, 48,0 КГц, AC3, 2 канала(ов), ~192 Кбит/сек [Оригинал][/field]

Полное имя: D:\СИНДБАД (трилогия 3хDVD-5\Капитан Синдбад DVD-5\VIDEO_TS\VTS_02_1.VOB
Формат: MPEG-PS
Размер файла: 1024 Мбайт
Продолжительность: 21 м.
Общий поток: 6815 Кбит/сек
Видео
Идентификатор: 224 (0xE0)
Формат: MPEG Video
Версия формата: Version 2
Профиль формата: Main@Main
Параметр BVOP формата: Да
Параметр матрицы формата: По умолчанию
Параметры GOP формата: M=3, N=15
Продолжительность: 21 м.
Вид битрейта: Переменный
Битрейт: 6103 Кбит/сек
Номинальный битрейт: 8000 Кбит/сек
Ширина: 720 пикс.
Высота: 480 пикс.
Соотношение сторон: 16:9
Частота кадров: 29,970 кадр/сек
Стандарт вещания: NTSC
Цветовое пространство: YUV
Подвыборка цветности: 4:2:0
Битовая глубина: 8 бит
Тип развёртки: Чересстрочная
Порядок развёртки: Нижнее поле первое
Метод сжатия: С потерями
Бит/(Пиксели*Кадры): 0.589
Размер потока: 917 Мбайт (90%)
Аудио #1
Идентификатор: 128 (0x80)
Формат: AC-3
Формат/Информация: Audio Coding 3
Расширение режима: CM (complete main)
Продолжительность: 21 м.
Вид битрейта: Постоянный
Битрейт: 192 Кбит/сек
Канал(ы): 2 канала(ов)
Расположение каналов: Front: L R
Частота: 48,0 КГц
Битовая глубина: 16 бит
Метод сжатия: С потерями
Размер потока: 28,8 Мбайт (3%)
Аудио #2
Идентификатор: 129 (0x81)
Формат: AC-3
Формат/Информация: Audio Coding 3
Расширение режима: CM (complete main)
Продолжительность: 21 м.
Вид битрейта: Постоянный
Битрейт: 192 Кбит/сек
Канал(ы): 2 канала(ов)
Расположение каналов: Front: L R
Частота: 48,0 КГц
Битовая глубина: 16 бит
Метод сжатия: С потерями
Размер потока: 28,8 Мбайт (3%)
Аудио #3
Идентификатор: 130 (0x82)
Формат: AC-3
Формат/Информация: Audio Coding 3
Расширение режима: CM (complete main)
Продолжительность: 21 м.
Вид битрейта: Постоянный
Битрейт: 192 Кбит/сек
Канал(ы): 2 канала(ов)
Расположение каналов: Front: L R
Частота: 48,0 КГц
Битовая глубина: 16 бит
Метод сжатия: С потерями
Размер потока: 28,8 Мбайт (3%)
Меню


















Поделиться:




реклама партнёра


Вернуться к началу
 Профиль Отправить личное сообщение  
 
   Похожие торренты   Автор   Торрент   Размер 
В этой теме нет новых непрочитанных сообщений. Капитан Рон / Captain Ron [комедия, приключения, семейный, 1992] WEB-DL 720p, Mvo+Dvo+Avo+Sub

salma3

24 | 8

3.89 ГБ

В этой теме нет новых непрочитанных сообщений. Синдбад и Глаз Тигра / Sinbad and the Eye of the Tiger [фэнтези, боевик, приключения, 1977] BDRip, Mvo

salma3

59 | 17

1.46 ГБ

В этой теме нет новых непрочитанных сообщений. Небесный капитан и мир будущего / Sky Captain and the World of Tomorrow [фантастика, боевик, триллер, 2004] BDRip 720p, Dub+Sub

salma3

40 | 12

3.99 ГБ

В этой теме нет новых непрочитанных сообщений. Синдбад и Глаз Тигра / Sinbad and the Eye of the Tiger [фэнтези, боевик, драма, приключения, семейный, 1977] BDRip 720p, Mvo+Avo

salma3

51 | 51

6.23 ГБ

В этой теме нет новых непрочитанных сообщений. Капитан Подштанник: Первый эпический фильм / Captain Underpants: The First Epic Movie [мультфильм, боевик, комедия, семейный, 2017] BDRip, Mvo [Лицензия]

salma3

0 | 0

1.46 ГБ

В этой теме нет новых непрочитанных сообщений. Капитан Подштанник: Первый эпический фильм / Captain Underpants: The First Epic Movie [мультфильм, боевик, комедия, 2017] BDRip 1080p, Mvo [Лицензия]

salma3

77 | 27

8.03 ГБ

В этой теме нет новых непрочитанных сообщений. Капитан Подштанник: Первый эпический фильм / Captain Underpants: The First Epic Movie [мультфильм, боевик, комедия, семейный, 2017] BDRip 720p, Mvo [Лицензия]

salma3

0 | 0

4.38 ГБ


Начать новую тему Ответить на тему  [ 1 сообщение ] 




Для Мосгорсуда, Роскомнадзора и рекламодателей:: mosgorsud-torrent[собачка]yandex.ru