Торрент файл
скачать торрент магнет ссылка Добавлен: 08 янв 2012, 21:52
Размер: 4.34 ГБ
Сидеров: 4
Личеров: 7
Автор

СообщениеДобавлено: 08 янв 2012, 21:52 

Не в сети
Супермодератор
Аватара пользователя
Дата регистрации:
11 апр 2010, 18:10
Спасибо: 5953 / 7
Сообщения: 56776
Кара небесная /Подмена / Switch


Перевод: Профессиональный (многоголосый, закадровый)
Cубтитры:Английские, французские, испанские
Формат: DVD5, DVD Video, MPEG2, AC3
Страна: США
Режиссер: Блейк Эдвардс
Жанр: Фэнтези, комедия, криминал
Продолжительность: 01:43:03
Год выпуска: 1991

В ролях: Эллен Баркин, Джимми Смитс, ДжоБет Уильямс, Лоррейн Бракко, Тони Робертс, Перри Кинг, Брюс Пэйн, Лизетт Энтони, Виктория Махони, Бэзил Хоффман

Описание: Стив Брукс, сердцеед и соблазнитель женщин, отправляясь на очередную вечеринку, не знал, что погибнет от рук своих любимиц и на следующий день превратится в эффектную блондинку. Теперь, чтобы не попасть в Ад, он должен понравиться хотя бы одному человеку… точнее, хотя бы одной женщине.

Рейтинг на КиноПоиск:7.508
Рейтинг на IMDB:5.4/10

Видео: 720x480, (NTSC 16:9), MPEG2 Video, 23,976 кадр/сек, ~ 9800 Кбит/сек
Аудио #1: Русский, 48,0 КГц, AC3, 2 канала(ов), ~192 Кбит/сек [Профессиональный (многоголосый, закадровый)]
Аудио #2: Английский, 48,0 КГц, AC3, 2 канала(ов), ~192 Кбит/сек [Оригинал]
Аудио #3: Русский, 48,0 КГц, AC3, 2 канала(ов), ~192 Кбит/сек [Авторский] А.Михалев

Доп. информация: В российском прокате фильм демонстрируется под названием "Кара небесная"


Полное имя: D:\Кара небесная DVD-5\VIDEO_TS\VTS_01_1.VOB
Формат: MPEG-PS
Размер файла: 1024 Мбайт
Продолжительность: 24 м.
Общий поток: 5841 Кбит/сек
Видео
Идентификатор: 224 (0xE0)
Формат: MPEG Video
Версия формата: Version 2
Профиль формата: Main@Main
Параметр BVOP формата: Да
Параметр матрицы формата: По умолчанию
Продолжительность: 24 м.
Вид битрейта: Переменный
Битрейт: 5148 Кбит/сек
Номинальный битрейт: 9800 Кбит/сек
Ширина: 720 пикс.
Высота: 480 пикс.
Соотношение сторон: 16:9
Частота кадров: 23,976 кадр/сек
Стандарт вещания: Component
Цветовое пространство: YUV
Подвыборка цветности: 4:2:0
Битовая глубина: 8 бит
Тип развёртки: Прогрессивная
Порядок развёртки: 2:3 Pulldown
Метод сжатия: С потерями
Бит/(Пиксели*Кадры): 0.621
Размер потока: 903 Мбайт (88%)
Аудио #1
Идентификатор: 128 (0x80)
Формат: AC-3
Формат/Информация: Audio Coding 3
Расширение режима: CM (complete main)
Продолжительность: 24 м.
Вид битрейта: Постоянный
Битрейт: 192 Кбит/сек
Канал(ы): 2 канала(ов)
Расположение каналов: Front: L R
Частота: 48,0 КГц
Битовая глубина: 16 бит
Метод сжатия: С потерями
Задержка видео: 17 мс.
Размер потока: 33,7 Мбайт (3%)
Аудио #2
Идентификатор: 129 (0x81)
Формат: AC-3
Формат/Информация: Audio Coding 3
Профиль формата: Dolby Digital
Расширение режима: CM (complete main)
Продолжительность: 24 м.
Вид битрейта: Постоянный
Битрейт: 192 Кбит/сек
Канал(ы): 2 канала(ов)
Расположение каналов: Front: L R
Частота: 48,0 КГц
Битовая глубина: 16 бит
Метод сжатия: С потерями
Задержка видео: 17 мс.
Размер потока: 33,7 Мбайт (3%)
Аудио #3
Идентификатор: 130 (0x82)
Формат: AC-3
Формат/Информация: Audio Coding 3
Профиль формата: Dolby Digital
Расширение режима: CM (complete main)
Продолжительность: 24 м.
Вид битрейта: Постоянный
Битрейт: 192 Кбит/сек
Канал(ы): 2 канала(ов)
Расположение каналов: Front: L R
Частота: 48,0 КГц
Битовая глубина: 16 бит
Метод сжатия: С потерями
Задержка видео: 17 мс.
Размер потока: 33,7 Мбайт (3%)
Текст #1
Идентификатор: 224 (0xE0)-DVD-2
Формат: EIA-608
Режим смешивания: DVD-Video
Режим смешивания, доп. информаци : Muxed in Video #1
Размер потока: 0,00 байт (0%)
Текст #2
Идентификатор: 32 (0x20)
Формат: RLE
Формат/Информация: Run-length encoding
Текст #3
Идентификатор: 33 (0x21)
Формат: RLE
Формат/Информация: Run-length encoding
Текст #4
Идентификатор: 34 (0x22)
Формат: RLE
Формат/Информация: Run-length encoding
Меню
























Поделиться:




реклама партнёра


Вернуться к началу
 Профиль Отправить личное сообщение  
 
   Похожие торренты   Автор   Торрент   Размер 
В этой теме нет новых непрочитанных сообщений. Подмена / Switch [комедия, 1991] DVDRip-AVC, Avo+Sub

salma3

54 | 2

1.3 ГБ

В этой теме нет новых непрочитанных сообщений. Байки из склепа / Tales from the Crypt [ужасы, фэнтези, триллер, комедия, криминал, детектив, 1989] DVD5, Avo

salma3

1 | 3

4.18 ГБ

В этой теме нет новых непрочитанных сообщений. В бреду / Delirious [фэнтези, комедия, 1991] BDRip, Dvo

salma3

64 | 12

1.45 ГБ

В этой теме нет новых непрочитанных сообщений. Не говори маме, что няня умерла / Don't Tell Mom the Babysitter's Dead [комедия, семейный, 1991] DVD5, Dvo

salma3

22 | 22

4.03 ГБ

В этой теме нет новых непрочитанных сообщений. Больше, чем друг / The Switch [драма, мелодрама, комедия, 2010] BDRemux, Dub

salma3

12 | 3

27.31 ГБ

В этой теме нет новых непрочитанных сообщений. Рождественская подмена / Christmas Trade [комедия, семейный, 2015] HDRip, Mvo [официальный звук]

salma3

246 | 70

1.53 ГБ

В этой теме нет новых непрочитанных сообщений. В бреду / Delirious [Фэнтези, комедия, 1991] BDRip 1080p, Dvo

salma3

6 | 11

14.41 ГБ


Начать новую тему Ответить на тему  [ 1 сообщение ] 




Для Мосгорсуда, Роскомнадзора и рекламодателей:: mosgorsud-torrent[собачка]yandex.ru