Торрент файл
скачать торрент магнет ссылка Добавлен: 08 янв 2012, 21:51
Размер: 3.8 ГБ
Сидеров: 0
Личеров: 5
Автор

СообщениеДобавлено: 08 янв 2012, 21:51 

Не в сети
Супермодератор
Аватара пользователя
Дата регистрации:
11 апр 2010, 18:10
Спасибо: 5802 / 7
Сообщения: 56779
Бодрость духов / High Spirits

Перевод: Авторский (А. Михалев)
Cубтитры:Английские, французские, испанские
Формат: DVD5, DVD Video, MPEG2, AC3
Страна: США, Великобритания
Режиссер: Нил Джордан
Жанр: Ужасы, фэнтези, мелодрама, комедия
Продолжительность: 01:37:39
Год выпуска: 1988

В ролях: Питер О’Тул, Донал МакКанн, Мэри Кохлан, Лиз Смит, Том Хикки, Тони Рор, Хилари Рейнольдс,Литтл Джон, Стив Гуттенберг

Описание: Владелец старинного ирландского замка Питер Планкетт решил: пора распахнуть двери своих владений для иностранных туристов. А чтобы привлечь побольше посетителей, он разместил рекламное объявление: особняк буквально наводнен привидениями. Бедняга не знал, что это — чистая правда. И вот полный автобус американских туристов, среди которых супруги Джек и Шэрон, прибыл к замку Планкетта. Тут-то все и началось…

Рейтинг на КиноПоиск:6.798[/field]
Рейтинг MPAA:PG-13[/field]
Рейтинг на IMDB:5.2/10[/field][/field]

Видео: 720x480, (NTSC 4:3), MPEG2 Video, 29,970 кадр/сек, ~ 8700 Кбит/сек
Аудио #1:Русский, 48,0 КГц, AC3, 2 канала(ов), ~192 Кбит/сек [Авторский (одноголосый) (А. Михалев)]
Аудио #2:Английский, 48,0 КГц, AC3, 2 канала(ов), ~192 Кбит/сек [Оригинал][/field]

Полное имя: D:\Бодрость духов DVD-5\VIDEO_TS\VTS_02_1.VOB
Формат: MPEG-PS
Размер файла: 1024 Мбайт
Продолжительность: 26 м.
Общий поток: 5436 Кбит/сек
Видео
Идентификатор: 224 (0xE0)
Формат: MPEG Video
Версия формата: Version 2
Профиль формата: Main@Main
Параметр BVOP формата: Да
Параметр матрицы формата: По умолчанию
Продолжительность: 26 м.
Вид битрейта: Переменный
Битрейт: 4944 Кбит/сек
Номинальный битрейт: 8700 Кбит/сек
Ширина: 720 пикс.
Высота: 480 пикс.
Соотношение сторон: 4:3
Частота кадров: 29,970 кадр/сек
Стандарт вещания: NTSC
Цветовое пространство: YUV
Подвыборка цветности: 4:2:0
Битовая глубина: 8 бит
Метод сжатия: С потерями
Бит/(Пиксели*Кадры): 0.477
Размер потока: 931 Мбайт (91%)
Аудио #1
Идентификатор: 128 (0x80)
Формат: AC-3
Формат/Информация: Audio Coding 3
Расширение режима: CM (complete main)
Продолжительность: 26 м.
Вид битрейта: Постоянный
Битрейт: 192 Кбит/сек
Канал(ы): 2 канала(ов)
Расположение каналов: Front: L R
Частота: 48,0 КГц
Битовая глубина: 16 бит
Метод сжатия: С потерями
Размер потока: 36,2 Мбайт (4%)
Аудио #2
Идентификатор: 129 (0x81)
Формат: AC-3
Формат/Информация: Audio Coding 3
Профиль формата: Dolby Digital
Расширение режима: CM (complete main)
Продолжительность: 26 м.
Вид битрейта: Постоянный
Битрейт: 192 Кбит/сек
Канал(ы): 2 канала(ов)
Расположение каналов: Front: L R
Частота: 48,0 КГц
Битовая глубина: 16 бит
Метод сжатия: С потерями
Размер потока: 36,2 Мбайт (4%)
Текст #1
Идентификатор: 224 (0xE0)-DVD-2
Формат: EIA-608
Режим смешивания: DVD-Video
Режим смешивания, доп. информаци : Muxed in Video #1
Размер потока: 0,00 байт (0%)
Текст #2
Идентификатор: 32 (0x20)
Формат: RLE
Формат/Информация: Run-length encoding
Текст #3
Идентификатор: 33 (0x21)
Формат: RLE
Формат/Информация: Run-length encoding
Текст #4
Идентификатор: 34 (0x22)
Формат: RLE
Формат/Информация: Run-length encoding
Меню






















Поделиться:




реклама партнёра


Вернуться к началу
 Профиль Отправить личное сообщение  
 
   Похожие торренты   Автор   Торрент   Размер 
В этой теме нет новых непрочитанных сообщений. Дом духов / The House of the Spirits [драма, мелодрама, 1993] HDRip, Avo

salma3

42 | 10

2.08 ГБ

В этой теме нет новых непрочитанных сообщений. Bullfrog - High In Spirits (1977) [2002, Hard Rock, MP3]

PriZraK

0 | 1

92.12 МБ

В этой теме нет новых непрочитанных сообщений. Ад в Лягушачьем городе / Hell Comes to Frogtown [Ужасы, фэнтези, комедия, 1988] HDRip, Avo

salma3

10 | 2

1.41 ГБ

В этой теме нет новых непрочитанных сообщений. Бобры-зомби / Zombeavers (Джордан Рубин) [ужасы, боевик, комедия, 2014] Blu-ray 1080p, Mvo+avo

Марик

17 | 15

26.97 ГБ

В этой теме нет новых непрочитанных сообщений. Бобры-зомби / Zombeavers (Джордан Рубин) [ужасы, боевик, комедия, 2014] HDRip, Mvo

Dracon

443 | 138

1.37 ГБ

В этой теме нет новых непрочитанных сообщений. Бобры-зомби / Zombeavers (Джордан Рубин) [ужасы, боевик, комедия, 2014] BDRemux 1080p, Mvo+avo

Марик

22 | 6

22.71 ГБ

В этой теме нет новых непрочитанных сообщений. Бобры-зомби / Zombeavers (Джордан Рубин) [ужасы, боевик, комедия, 2014] BDRip 720p, Mvo

Dracon

67 | 5

4.49 ГБ


Начать новую тему Ответить на тему  [ 1 сообщение ] 




Для Мосгорсуда, Роскомнадзора и рекламодателей:: mosgorsud-torrent[собачка]yandex.ru