Торрент файл
скачать торрент магнет ссылка Добавлен: 08 янв 2012, 21:51
Размер: 4.33 ГБ
Сидеров: 0
Личеров: 3
Автор

СообщениеДобавлено: 08 янв 2012, 21:51 

Не в сети
Супермодератор
Аватара пользователя
Дата регистрации:
11 апр 2010, 18:10
Спасибо: 5960 / 7
Сообщения: 56770
Жизненная сила / Lifeforce

Перевод: Авторский (А.Гаврилов)
Субтитры: Английские, французские, испанские
Формат: DVD5, DVD Video, MPEG2, AC3
Страна: Великобритания
Режиссер: Тоуб Хупер
Жанр: Ужасы, фантастика, триллер
Продолжительность: 01:56:00
Год выпуска: 1985

В ролях: Стив Рейлсбэк, Питер Фёрт, Фрэнк Финлей, Матильда Мэй, Патрик Стюарт, Майкл Гозард, Николас Болл, Обри Моррис, Нэнси Пол, Джон Хэллам

Описание: Космическая экспедиция исследует комету Галлея и натыкается на новую форму разумной жизни — нечто вроде космических вампиров, вместо крови черпающих энергию из своих жертв. Забрав этих чудовищ в образах очень красивой обнаженной женщины и двух мужчин на борт, космонавты совершили страшную ошибку. Мало того, что все они, кроме Рэйлсбэка погибли, вампиры проникли на Землю, где начали массовую заготовку жизенной силы, забирая ее у людей, превращавшихся в нечто вроде зомби. Все это напоминает конец света.

Рейтинг на КиноПоиск:5.779[/field]
Рейтинг MPAA:R[/field]
Рейтинг на IMDB:5.9/10[/field][/field]

Видео: 720x480, (NTSC 4:3), MPEG2 Video, 29,970 кадр/сек, ~ 3779 Кбит/сек
Аудио #1:Русский, 48,0 КГц, AC3, 6 канала(ов), ~384 Кбит/сек [Авторский (одноголосый) (А.Гаврилов)]
Аудио #2:Английский, 48,0 КГц, AC3, 6 канала(ов), ~384 Кбит/сек [Оригинал][/field]

Полное имя: I:\Фильмы DVD\Ихние\Жизненная сила DVD-5\VIDEO_TS\VTS_01_1.VOB
Формат: MPEG-PS
Размер файла: 1024 Мбайт
Продолжительность: 30 м.
Общий поток: 4639 Кбит/сек
Видео
Идентификатор: 224 (0xE0)
Формат: MPEG Video
Версия формата: Version 2
Профиль формата: Main@Main
Параметр BVOP формата: Да
Параметр матрицы формата: По умолчанию
Продолжительность: 30 м.
Вид битрейта: Переменный
Битрейт: 3779 Кбит/сек
Ширина: 720 пикс.
Высота: 480 пикс.
Соотношение сторон: 4:3
Частота кадров: 29,970 кадр/сек
Стандарт вещания: NTSC
Цветовое пространство: YUV
Подвыборка цветности: 4:2:0
Битовая глубина: 8 бит
Метод сжатия: С потерями
Бит/(Пиксели*Кадры): 0.365
Размер потока: 834 Мбайт (81%)
Аудио #1
Идентификатор: 128 (0x80)
Формат: AC-3
Формат/Информация: Audio Coding 3
Расширение режима: CM (complete main)
Продолжительность: 30 м.
Вид битрейта: Постоянный
Битрейт: 384 Кбит/сек
Канал(ы): 6 канала(ов)
Расположение каналов: Front: L C R, Side: L R, LFE
Частота: 48,0 КГц
Битовая глубина: 16 бит
Метод сжатия: С потерями
Задержка видео: -66 мс.
Размер потока: 84,8 Мбайт (8%)
Аудио #2
Идентификатор: 129 (0x81)
Формат: AC-3
Формат/Информация: Audio Coding 3
Расширение режима: CM (complete main)
Продолжительность: 30 м.
Вид битрейта: Постоянный
Битрейт: 384 Кбит/сек
Канал(ы): 6 канала(ов)
Расположение каналов: Front: L C R, Side: L R, LFE
Частота: 48,0 КГц
Битовая глубина: 16 бит
Метод сжатия: С потерями
Задержка видео: -66 мс.
Размер потока: 84,8 Мбайт (8%)
Текст #1
Идентификатор: 224 (0xE0)-DVD-2
Формат: EIA-608
Режим смешивания: DVD-Video
Режим смешивания, доп. информаци : Muxed in Video #1
Размер потока: 0,00 байт (0%)
Текст #2
Идентификатор: 32 (0x20)
Формат: RLE
Формат/Информация: Run-length encoding
Текст #3
Идентификатор: 33 (0x21)
Формат: RLE
Формат/Информация: Run-length encoding
Текст #4
Идентификатор: 34 (0x22)
Формат: RLE
Формат/Информация: Run-length encoding
Меню






















Поделиться:




реклама партнёра


Вернуться к началу
 Профиль Отправить личное сообщение  
 
   Похожие торренты   Автор   Торрент   Размер 
В этой теме нет новых непрочитанных сообщений. Жизненная сила / Lifeforce [ужасы, фантастика, боевик, 1985] BDRip-AVC, Dvo

salma3

95 | 27

1.46 ГБ

В этой теме нет новых непрочитанных сообщений. Жизненная сила / Lifeforce [ужасы, фантастика, боевик, 1985] BDRip 720p, Mvo

salma3

92 | 36

5.37 ГБ

В этой теме нет новых непрочитанных сообщений. Первая сила / The First Power [Триллер, ужасы, 1990] BDRip, Avo [Гаврилов]

salma3

37 | 0

1.46 ГБ

В этой теме нет новых непрочитанных сообщений. Нечто / The Thing [ужасы, фантастика, триллер, детектив, 2011] BDRip, Avo [Гаврилов]

salma3

134 | 14

1.45 ГБ

В этой теме нет новых непрочитанных сообщений. Кловерфилд, 10 / 10 Cloverfield Lane [ужасы, фантастика, триллер, 2016] BDRip, Avo Гаврилов]

salma3

49 | 12

1.46 ГБ

В этой теме нет новых непрочитанных сообщений. Режь и беги / Cut and Run / Inferno in diretta [ужасы, триллер, приключения, 1985] DVD5, Avo

salma3

23 | 9

4.28 ГБ

В этой теме нет новых непрочитанных сообщений. Жить и умереть в Лос-Анджелесе / To Live and Die in L.A. [боевик, триллер, драма, криминал, 1985] HDRip, Avo [Гаврилов]

salma3

24 | 1

1.45 ГБ


Начать новую тему Ответить на тему  [ 1 сообщение ] 




Для Мосгорсуда, Роскомнадзора и рекламодателей:: mosgorsud-torrent[собачка]yandex.ru