Торрент файл
скачать торрент магнет ссылка Добавлен: 08 янв 2012, 21:50
Размер: 3.47 ГБ
Сидеров: 1
Личеров: 5
Автор

СообщениеДобавлено: 08 янв 2012, 21:50 

Не в сети
Супермодератор
Аватара пользователя
Дата регистрации:
11 апр 2010, 18:10
Спасибо: 5802 / 7
Сообщения: 56779
Катала

Перевод: Не требуется
Субтитры: отсутствуют
Формат: DVD5, DVD Video, MPEG2, AC3
Страна: СССР
Режиссер: Сергей Бодров, Александр Буравский
Жанр: Мелодрама, криминал
Продолжительность: 01:13:27
Год выпуска: 1989

В ролях: Валерий Гаркалин, Елена Сафонова, Нодар Мгалоблишвили, Виктор Павлов, Луиза Мосендз, Кристина Щербакова, Алекс Папакристу, Сергей Газаров, Лариса Кузнецова, Ренат Давлетьяров

Описание: В основе остросюжетного фильма — история игрока, внедрившегося в среду профессиональных картежников в надежде сорвать крупный куш. Эта авантюра вынуждает героя пройти через множество злоключений, и в итоге неумолимые обстоятельства приводят его к полному проигрышу…

Рейтинг на КиноПоиск:6.802[/field]
Рейтинг на IMDB:6.8/10[/field][/field]

Видео: 720x576, (PAL 4:3), MPEG2 Video, 25,000 кадр/сек, ~ 6350 Кбит/сек
Аудио: Русский, 48,0 КГц, AC3, 2 канала(ов), ~192 Кбит/сек


Полное имя: I:\Фильмы DVD\Наши\Катала DVD-5\VIDEO_TS\VTS_01_1.VOB
Формат: MPEG-PS
Размер файла: 1024 Мбайт
Продолжительность: 21 м.
Общий поток: 6675 Кбит/сек
Библиотека кодирования: encoded by TMPGEnc (ver. 2.524.63.181)
Видео
Идентификатор: 224 (0xE0)
Формат: MPEG Video
Версия формата: Version 2
Профиль формата: Main@Main
Параметр BVOP формата: Да
Параметр матрицы формата: По умолчанию
Продолжительность: 21 м.
Вид битрейта: Переменный
Битрейт: 6350 Кбит/сек
Ширина: 720 пикс.
Высота: 576 пикс.
Соотношение сторон: 4:3
Частота кадров: 25,000 кадр/сек
Стандарт вещания: PAL
Цветовое пространство: YUV
Подвыборка цветности: 4:2:0
Битовая глубина: 8 бит
Метод сжатия: С потерями
Бит/(Пиксели*Кадры): 0.612
Размер потока: 974 Мбайт (95%)
Библиотека кодирования: TMPGEnc 2.524.63.181
Аудио
Идентификатор: 128 (0x80)
Формат: AC-3
Формат/Информация: Audio Coding 3
Расширение режима: CM (complete main)
Продолжительность: 21 м.
Вид битрейта: Постоянный
Битрейт: 192 Кбит/сек
Канал(ы): 2 канала(ов)
Расположение каналов: Front: L R
Частота: 48,0 КГц
Битовая глубина: 16 бит
Метод сжатия: С потерями
Задержка видео: -1 мс.
Размер потока: 29,5 Мбайт (3%)
Меню




















Поделиться:




реклама партнёра


Вернуться к началу
 Профиль Отправить личное сообщение  
 
   Похожие торренты   Автор   Торрент   Размер 
В этой теме нет новых непрочитанных сообщений. Седьмой сын / Seventh Son (Сергей Бодров) [фэнтези, приключения, 2014] WEB-DL 1080p, Dub [iTunes]

Dracon

118 | 10

3.64 ГБ

В этой теме нет новых непрочитанных сообщений. Седьмой сын / Seventh Son (Сергей Бодров) [фэнтези, приключения, 2014] WEB-DLRip-AVC, Dub [iTunes]

Dracon

1304 | 35

1.86 ГБ

В этой теме нет новых непрочитанных сообщений. Седьмой сын / Seventh Son (Сергей Бодров) [фэнтези, приключения, 2014] HDRip, Dub [Лицензия]

Dracon

394 | 25

2.06 ГБ

В этой теме нет новых непрочитанных сообщений. Седьмой сын / Seventh Son (Сергей Бодров) [фэнтези, приключения, 2014] HDRip, Dub [iTunes]

Dracon

403 | 18

1.46 ГБ

В этой теме нет новых непрочитанных сообщений. Седьмой сын / Seventh Son (Сергей Бодров) [фэнтези, приключения, 2014] DVD9, Dub+Sub [Лицензия]

Dracon

0 | 0

5.86 ГБ

В этой теме нет новых непрочитанных сообщений. Седьмой сын / Seventh Son (Сергей Бодров) [фэнтези, приключения, 2014] Blu-ray CCE 1080p, Dub+Sub [Лицензия]

Dracon

35 | 8

40.91 ГБ

В этой теме нет новых непрочитанных сообщений. Седьмой сын / Seventh Son (Сергей Бодров) [фэнтези, приключения, 2014] HDRip-AVC, Dub+Sub [Лицензия]

Dracon

667 | 50

2 ГБ


Начать новую тему Ответить на тему  [ 1 сообщение ] 




Для Мосгорсуда, Роскомнадзора и рекламодателей:: mosgorsud-torrent[собачка]yandex.ru