Торрент файл
скачать торрент магнет ссылка Добавлен: 08 янв 2012, 21:50
Размер: 3.9 ГБ
Сидеров: 5
Личеров: 3
Автор

СообщениеДобавлено: 08 янв 2012, 21:50 

Не в сети
Супермодератор
Аватара пользователя
Дата регистрации:
11 апр 2010, 18:10
Спасибо: 5802 / 7
Сообщения: 56779
Всадник без головы

Перевод: Не требуется
Субтитры: отсутствуют
Формат: DVD5, DVD Video, MPEG2, AC3
Страна: СССР
Режиссер: Владимир Вайншток
Жанр: Мелодрама, приключения, вестерн
Продолжительность: 01:34:35
Год выпуска: 1973

В ролях: Людмила Савельева, Олег Видов, Алехандро Луго, Эслинда Нуньес, Александр Милокостый, Иван Петров, Аарне Юкскюла, В. Беловоцкий, В. Ионтов, Е. Харкевич

Описание: В середине XIX века, после кровопролитной войны с Мексикой, американцы начали покорение огромной территории Техаса. У нового владельца гасиенды Каса-дель-Корво дела идут далеко не блестяще. К тому же происходит страшное событие: бесследно исчезает его сын.Подозрение в убийстве падает на молодого мустангера Мориса Джеральда, в которого влюблена дочь хозяина. Когда кажется, что казнь неминуема, внезапно появляется главный свидетель преступления…

Рейтинг на КиноПоиск:6.880[/field]
Рейтинг на IMDB:6.5/10[/field][/field]

Видео: 720x576, (PAL 16:9), MPEG2 Video, 25,000 кадр/сек, ~ 9000 Кбит/сек
Аудио: Русский, 48,0 КГц, AC3, 2 канала(ов), ~192 Кбит/сек

Полное имя: F:\Фильмы DVD\Всадник без головы DVD-5\VIDEO_TS\VTS_02_1.VOB
Формат: MPEG-PS
Размер файла: 1024 Мбайт
Продолжительность: 23 м.
Общий поток: 6188 Кбит/сек
Видео
Идентификатор: 224 (0xE0)
Формат: MPEG Video
Версия формата: Version 2
Профиль формата: Main@Main
Параметр BVOP формата: Да
Параметр матрицы формата: По умолчанию
Продолжительность: 23 м.
Вид битрейта: Переменный
Битрейт: 5873 Кбит/сек
Номинальный битрейт: 9000 Кбит/сек
Ширина: 720 пикс.
Высота: 576 пикс.
Соотношение сторон: 16:9
Частота кадров: 25,000 кадр/сек
Стандарт вещания: PAL
Цветовое пространство: YUV
Подвыборка цветности: 4:2:0
Битовая глубина: 8 бит
Тип развёртки: Чересстрочная
Порядок развёртки: Верхнее поле первое
Метод сжатия: С потерями
Бит/(Пиксели*Кадры): 0.566
Размер потока: 972 Мбайт (95%)
Аудио
Идентификатор: 128 (0x80)
Формат: AC-3
Формат/Информация: Audio Coding 3
Расширение режима: CM (complete main)
Продолжительность: 23 м.
Вид битрейта: Постоянный
Битрейт: 192 Кбит/сек
Канал(ы): 2 канала(ов)
Расположение каналов: Front: L R
Частота: 48,0 КГц
Битовая глубина: 16 бит
Метод сжатия: С потерями
Размер потока: 31,8 Мбайт (3%)
Меню
























Поделиться:




реклама партнёра


Вернуться к началу
 Профиль Отправить личное сообщение  
 
   Похожие торренты   Автор   Торрент   Размер 
В этой теме нет новых непрочитанных сообщений. Апачи / Apachen [Вестерн, приключения, 1973] Blu-ray Custom 1080i, Dub+Sub

salma3

54 | 25

22.48 ГБ

В этой теме нет новых непрочитанных сообщений. Западный мир / Westworld [Фантастика, боевик, вестерн, 1973] BDRip 720p, Mvo+Avo+Sub

salma3

55 | 3

3.71 ГБ

В этой теме нет новых непрочитанных сообщений. Западный мир / Westworld [Фантастика, боевик, вестерн, 1973] BDRemux 1080i, Mvo+Avo+Sub

salma3

19 | 4

14.1 ГБ

В этой теме нет новых непрочитанных сообщений. Меня зовут Никто / Il mio nome e Nessuno [комедия, вестерн, 1973] BDRip, Mvo

salma3

11 | 3

1.46 ГБ

В этой теме нет новых непрочитанных сообщений. Живи падаль... награда растёт / Campa carogna... la taglia cresce [вестерн, 1973] DVDRip, Avo

salma3

68 | 2

1.45 ГБ

В этой теме нет новых непрочитанных сообщений. Команчерос / The Comancheros [боевик, мелодрама, приключения, вестерн, 1961] BDRip 720p, Mvo+Avo+Sub

salma3

18 | 11

11.75 ГБ

В этой теме нет новых непрочитанных сообщений. Ну погоди! [01-25 из 25] (Вячеслав Котёночкин, Юрий Бутырин, Владимир Тарасов...) [1969-2006, мультфильм, комедия, семейный, приключения, DVD5]

Nickolas3435

696 | 58

4.36 ГБ


Начать новую тему Ответить на тему  [ 1 сообщение ] 




Для Мосгорсуда, Роскомнадзора и рекламодателей:: mosgorsud-torrent[собачка]yandex.ru