Торрент файл
скачать торрент магнет ссылка Добавлен: 08 янв 2012, 21:50
Размер: 4.24 ГБ
Сидеров: 1
Личеров: 4
Автор

СообщениеДобавлено: 08 янв 2012, 21:50 

Не в сети
Супермодератор
Аватара пользователя
Дата регистрации:
11 апр 2010, 18:10
Спасибо: 5801 / 7
Сообщения: 56779
В чем дело, Док? / What's Up, Doc?

Перевод: Профессиональный (многоголосый, закадровый)
Cубтитры:Английские, французские, испанские
Формат: DVD5, DVD Video, MPEG2, AC3
Страна: США
Режиссер: Питер Богданович
Жанр: Мелодрама, комедия, музыка
Продолжительность: 01:33:51
Год выпуска: 1972

В ролях: Барбра Стрейзанд, Райан О’Нил, Мэдлин Кан, Кеннет Марс, Остин Пендлтон, Майкл Мерфи, Филип Рот, Соррел Бук, Стефан Гираш, Мэйбл Альбертсон

Описание: Действие происходит в отеле, где чемоданы с различным содержимым путешествуют из номера в номер благодаря неловким шпионам и незадачливым грабителям. В результате перемешиваются бриллианты, секретные документы, белье и… камни. Заканчивается все это пожаром и уморительной погоней по городским улицам…

Рейтинг на КиноПоиск:7.523[/field]
Рейтинг на IMDB:6.5/10[/field][/field]

Видео: 720x480, ( NTSC 16:9), MPEG2 Video, 23,976 кадр/сек, ~ 7500 Кбит/сек
Аудио #1:Русский, 48,0 КГц, AC3, 5 канала(ов), ~384 Кбит/сек [ Профессиональный (многоголосый, закадровый)]
Аудио #2:Английский, 48,0 КГц, AC3, 1 канал, ~192 Кбит/сек [Оригинал]
Аудио #2:Французский, 48,0 КГц, AC3, 1 канал, ~192 Кбит/сек[/field]

Полное имя: I:\Фильмы DVD\Ихние\В чем дело, Док DVD-5\VIDEO_TS\VTS_01_2.VOB
Формат: MPEG-PS
Размер файла: 1024 Мбайт
Продолжительность: 22 м.
Общий поток: 6285 Кбит/сек
Видео
Идентификатор: 224 (0xE0)
Формат: MPEG Video
Версия формата: Version 2
Профиль формата: Main@Main
Параметр BVOP формата: Да
Параметр матрицы формата: По умолчанию
Параметры GOP формата: M=3, N=12
Продолжительность: 22 м.
Вид битрейта: Переменный
Битрейт: 5392 Кбит/сек
Номинальный битрейт: 7500 Кбит/сек
Ширина: 720 пикс.
Высота: 480 пикс.
Соотношение сторон: 16:9
Частота кадров: 23,976 кадр/сек
Стандарт вещания: NTSC
Цветовое пространство: YUV
Подвыборка цветности: 4:2:0
Битовая глубина: 8 бит
Тип развёртки: Прогрессивная
Порядок развёртки: 2:3 Pulldown
Метод сжатия: С потерями
Бит/(Пиксели*Кадры): 0.651
Размер потока: 878 Мбайт (86%)
Аудио #1
Идентификатор: 128 (0x80)
Формат: AC-3
Формат/Информация: Audio Coding 3
Расширение режима: CM (complete main)
Продолжительность: 22 м.
Вид битрейта: Постоянный
Битрейт: 384 Кбит/сек
Канал(ы): 5 канала(ов)
Расположение каналов: Front: L C R, Side: L R
Частота: 48,0 КГц
Битовая глубина: 16 бит
Метод сжатия: С потерями
Задержка видео: -295 мс.
Размер потока: 62,5 Мбайт (6%)
Аудио #2
Идентификатор: 129 (0x81)
Формат: AC-3
Формат/Информация: Audio Coding 3
Расширение режима: CM (complete main)
Продолжительность: 22 м.
Вид битрейта: Постоянный
Битрейт: 192 Кбит/сек
Канал(ы): 1 канал
Расположение каналов: Front: C
Частота: 48,0 КГц
Битовая глубина: 16 бит
Метод сжатия: С потерями
Задержка видео: -199 мс.
Размер потока: 31,3 Мбайт (3%)
Аудио #3
Идентификатор: 130 (0x82)
Формат: AC-3
Формат/Информация: Audio Coding 3
Расширение режима: CM (complete main)
Продолжительность: 22 м.
Вид битрейта: Постоянный
Битрейт: 192 Кбит/сек
Канал(ы): 1 канал
Расположение каналов: Front: C
Частота: 48,0 КГц
Битовая глубина: 16 бит
Метод сжатия: С потерями
Задержка видео: -199 мс.
Размер потока: 31,3 Мбайт (3%)
Текст #1
Идентификатор: 32 (0x20)
Формат: RLE
Формат/Информация: Run-length encoding
Продолжительность: 22 м.
Задержка видео: 13 с.
Текст #2
Идентификатор: 33 (0x21)
Формат: RLE
Формат/Информация: Run-length encoding
Продолжительность: 22 м.
Задержка видео: 13 с.
Текст #3
Идентификатор: 34 (0x22)
Формат: RLE
Формат/Информация: Run-length encoding
Продолжительность: 22 м.
Задержка видео: 13 с.
Текст #4
Идентификатор: 224 (0xE0)-DVD-2
Формат: EIA-608
Режим смешивания: DVD-Video
Режим смешивания, доп. информаци : Muxed in Video #1
Размер потока: 0,00 байт (0%)
Меню

Золотой глобус
Номинации:
1973
Самый многообещающий новичок среди женщин

























Поделиться:




реклама партнёра


Вернуться к началу
 Профиль Отправить личное сообщение  
 
   Похожие торренты   Автор   Торрент   Размер 
В этой теме нет новых непрочитанных сообщений. Мисс Переполох / She's Funny That Way (Питер Богданович) [Комедия, 2014] HDRip, Dub [iTunes]

Dracon

2147 | 87

1.37 ГБ

В этой теме нет новых непрочитанных сообщений. Они все смеялись / They all laughed (Питер Богданович / Peter Bogdanovich) [1981г., комедия, DVDRip] MVO

Alfredovich

10 | 3

1.46 ГБ

В этой теме нет новых непрочитанных сообщений. Мисс Переполох / She's Funny That Way (Питер Богданович) [Комедия, 2014] Blu-Ray 1080p, Dub [iTunes]

Dracon

36 | 10

21.43 ГБ

В этой теме нет новых непрочитанных сообщений. Мисс Переполох / She's Funny That Way (Питер Богданович) [Комедия, 2014] BDRemux 1080p, Dub [iTunes]

Dracon

68 | 12

19.36 ГБ

В этой теме нет новых непрочитанных сообщений. Мисс Переполох / She's Funny That Way (Питер Богданович) [Комедия, 2014] BDRip 720p, Dub [iTunes]

Dracon

843 | 45

4.62 ГБ

В этой теме нет новых непрочитанных сообщений. Безумные подмостки / Не шуметь! / Noises off! (Питер Богданович / Peter Bogdanovich) [1992г., комедия, HDTVRip-AVC] 2xMVO + DVO + AVO

Alfredovich

32 | 1

3.42 ГБ

В этой теме нет новых непрочитанных сообщений. В чем дело, док? / What's Up, Doc? [комедия, 1972] BDRip 720p, Mvo

salma3

7 | 4

4.37 ГБ


Начать новую тему Ответить на тему  [ 1 сообщение ] 




Для Мосгорсуда, Роскомнадзора и рекламодателей:: mosgorsud-torrent[собачка]yandex.ru