Торрент файл
скачать торрент магнет ссылка Добавлен: 08 янв 2012, 21:49
Размер: 3.67 ГБ
Сидеров: 0
Личеров: 4
Автор

СообщениеДобавлено: 08 янв 2012, 21:49 

Не в сети
Супермодератор
Аватара пользователя
Дата регистрации:
11 апр 2010, 18:10
Спасибо: 5801 / 7
Сообщения: 56779
Осенние листья / Autumn Leaves


Перевод: Любительский (двухголосый)
Субтитры:Русские, Португальские
Формат: DVD5, DVD Video, MPEG2, AC3
Страна: США
Режиссер: Роберт Олдрич
Жанр: драма
Продолжительность: 01:41:51
Год выпуска: 1956

В ролях: Джоан Кроуфорд, Клифф Робертсон, Вера Майлз, Лорн Грин, Рут Доннелли, Шепперд Страдвик, Селмер Джексон, Максин Купер, Марджори Беннетт, Фрэнк Герстл

Описание: Милли (Кроуфорд) одинокая женщина, ставшая чемпионкой-машинисткой, но не познавшая радости в любви. Ее молодость прошла в заботах о больном отце, а теперь, пережив «бальзаковский» возраст, она живет одна в небольшом арендованном доме.
Однажды она знакомится с тихим и скромным Бертом Хэнсоном (Робертсон). Она жаждет любви, хватается за нее руками и ногами. Он улыбчивый, симпатичный, только что из армии, но уже подает надежды. Подсаживается к ней за столик, начинает ухаживать....
Она сопротивляется охватившему ее чувству влюбленности, но тем не менее не может устоять перед шармом молодого красавца. Но вскоре ей предстоит узнать темную сторону супруга…
Фильм потрясающе отразил извращенные качества человеческого разума. Прозванный «женским фильмом» , «Осенние листья»— это напряженнейшая психологическая драма об одиночестве, отчаянии и душевной болезни. Заглавная песня, написанная Джозефом Косама, Жаком Превером и Джонни Мерсером, была популярнейшим хитом в исполнении Нэта «Кинг»Коула.


Рейтинг на КиноПоиск.RU : 7.357
Рейтинг на IMDB :6.6/10

Видео: 720x576 (PAL 4:3 ), MPEG 2 Video, 25,000 fps, ~7000 kbps avg
Аудио#1: Русский48,0 kHz, Dolby AC3, 2 ch, ~192 kbps avg [Любительский (двухголосый)]
Аудио#2: Английский48,0 kHz, Dolby AC3, 2 ch, ~192 kbps avg [Оригинал]

Награды: Фильм получил приз на МКФ в Западном Берлине за режиссуру (Роберт Олдрич)

Общее
Полное имя: D:\закачка\osennie_listja_[tfile.ru]\VTS_01_1.VOB
Формат: MPEG-PS
Размер файла: 1024 Мбайт
Продолжительность: 29 м.
Общий поток: 4777 Кбит/сек

Видео
Идентификатор: 224 (0xE0)
Формат: MPEG Video
Версия формата: Version 2
Профиль формата: Main@Main
Параметр BVOP формата: Да
Параметр матрицы формата: По умолчанию
Параметры GOP формата: M=3, N=12
Продолжительность: 29 м.
Вид битрейта: Переменный
Битрейт: 4298 Кбит/сек
Максимальный битрейт: 7000 Кбит/сек
Ширина: 720 пикс.
Высота: 576 пикс.
Соотношение сторон: 4:3
Частота кадров: 25,000 кадр/сек
Стандарт вещания: PAL
Цветовое пространство: YUV
Подвыборка цветности: 4:2:0
Битовая глубина: 8 бит
Тип развёртки: Чересстрочная
Порядок развёртки: Нижнее поле первое
Метод сжатия: С потерями
Бит/(Пиксели*Кадры): 0.415
Размер потока: 921 Мбайт (90%)

Аудио #1
Идентификатор: 189 (0xBD)-128 (0x80)
Формат: AC-3
Формат/Информация: Audio Coding 3
Расширение режима: CM (complete main)
Режим смешивания: DVD-Video
Продолжительность: 29 м.
Вид битрейта: Постоянный
Битрейт: 192 Кбит/сек
Каналы: 2 канала
Расположение каналов: Front: L R
Частота: 48,0 КГц
Битовая глубина: 16 бит
Метод сжатия: С потерями
Задержка видео: -80 мс.
Размер потока: 41,1 Мбайт (4%)

Аудио #2
Идентификатор: 189 (0xBD)-129 (0x81)
Формат: AC-3
Формат/Информация: Audio Coding 3
Расширение режима: CM (complete main)
Режим смешивания: DVD-Video
Продолжительность: 29 м.
Вид битрейта: Постоянный
Битрейт: 192 Кбит/сек
Каналы: 2 канала
Расположение каналов: Front: L R
Частота: 48,0 КГц
Битовая глубина: 16 бит
Метод сжатия: С потерями
Задержка видео: -80 мс.
Размер потока: 41,1 Мбайт (4%)

Текст
Идентификатор: 189 (0xBD)-33 (0x21)
Формат: RLE
Формат/Информация: Run-length encoding
Режим смешивания: DVD-Video
Задержка видео: -80 мс.



























Поделиться:




реклама партнёра


Вернуться к началу
 Профиль Отправить личное сообщение  
 
   Похожие торренты   Автор   Торрент   Размер 
В этой теме нет новых непрочитанных сообщений. As Autumn Calls - An Autumn Departure [2011, Death, Doom Metal, MP3]

PriZraK

0 | 1

139.57 МБ

В этой теме нет новых непрочитанных сообщений. Дикие лошади / Wild Horses (Роберт Дювалл) [Драма, криминал, 2015] DVD5 [Sunny-Films]

Dracon

26 | 26

4.37 ГБ

В этой теме нет новых непрочитанных сообщений. Широки листья / Siroko je lisce (Петар Латинович / Petar Latinović) [1981г., Югославия, военный, DVDRip] VO + Sub

Alfredovich

9 | 3

1.37 ГБ

В этой теме нет новых непрочитанных сообщений. VA - Осенние Интернет Новинки 50+50 [Pop, Disco, 2014] MP3, 320kbps

Dracon

555 | 47

848.02 МБ

В этой теме нет новых непрочитанных сообщений. Сборник - Осенние новинки интернета 50+50 [2014, Pop, Dance, MP3]

Nickolas3435

662 | 27

848.36 МБ

В этой теме нет новых непрочитанных сообщений. Осенняя кровь / Autumn Blood [триллер, драма, 2013] DVDRip, Dvo

salma3

277 | 13

1.5 ГБ

В этой теме нет новых непрочитанных сообщений. Leaves' Eyes - Meredead [2011, Symphonic Gothic Metal, MP3]

PriZraK

0 | 1

137.17 МБ


Начать новую тему Ответить на тему  [ 1 сообщение ] 




Для Мосгорсуда, Роскомнадзора и рекламодателей:: mosgorsud-torrent[собачка]yandex.ru