Торрент файл
скачать торрент магнет ссылка Добавлен: 08 янв 2012, 21:44
Размер: 4.35 ГБ
Сидеров: 3
Личеров: 6
Автор

СообщениеДобавлено: 08 янв 2012, 21:44 

Не в сети
Супермодератор
Аватара пользователя
Дата регистрации:
11 апр 2010, 18:10
Спасибо: 5802 / 7
Сообщения: 56779
Квартира / The Apartment

Перевод: Профессиональный (многоголосый, закадровый)
Cубтитры:Русские, английские, немецкие
Формат: DVD5, DVD Video, MPEG2, AC3
Страна: США
Режиссер: Билли Уайлдер
Жанр: Драма, мелодрама, комедия
Продолжительность: 02:00:03
Год выпуска: 1960

В ролях: Джек Леммон, Ширли МакЛейн, Фред МакМюррэй, Рей Уолстон, Джек Крушен, Дэвид Льюис, Хоуп Холидей, Джоан Шоули, Наоми Стивенс, Джонни Севен

Описание: Скромный служащий страховой компании Бакстер, чтобы хоть как-то продвинуться по карьерной лестнице, одалживает ключи от своей холостяцкой квартиры не только приятелям, желающим «погулять на сторону», но и боссу. И действительно, дела начинают идти в гору, но случается непредвиденное: Бакстер знакомится с любовницей шефа Фрэн — несчастной, страдающей депрессией девушкой — и влюбляется в нее…

Рейтинг на КиноПоиск:8.171[/field]
Рейтинг на IMDB:8.4/10[/field][/field]

Видео: 720x576, (PAL 16:9), MPEG2 Video, 25,000 кадр/сек, ~ 8000 Кбит/сек
Аудио #1:Русский, 48,0 КГц, AC3, 5 канала(ов), ~384 Кбит/сек [Профессиональный (многоголосый закадровый)]
Аудио #2:Английский, 48,0 КГц, AC3, 2 канала(ов), ~192 Кбит/сек [Оригинал][/field]

Доп. информация: Фильм входит в список "50 фильмов, которые нужно посмотреть, прежде чем умереть"


Полное имя: I:\Фильмы DVD\Ихние\Квартира DVD-5\VIDEO_TS\VTS_01_1.VOB
Формат: MPEG-PS
Размер файла: 1024 Мбайт
Продолжительность: 27 м.
Общий поток: 5230 Кбит/сек
Видео
Идентификатор: 224 (0xE0)
Формат: MPEG Video
Версия формата: Version 2
Профиль формата: Main@Main
Параметр BVOP формата: Да
Параметр матрицы формата: По умолчанию
Параметры GOP формата: M=3, N=12
Продолжительность: 27 м.
Вид битрейта: Переменный
Битрейт: 4550 Кбит/сек
Номинальный битрейт: 8000 Кбит/сек
Ширина: 720 пикс.
Высота: 576 пикс.
Соотношение сторон: 2,35:1
Частота кадров: 25,000 кадр/сек
Стандарт вещания: PAL
Цветовое пространство: YUV
Подвыборка цветности: 4:2:0
Битовая глубина: 8 бит
Тип развёртки: Чересстрочная
Порядок развёртки: Верхнее поле первое
Метод сжатия: С потерями
Бит/(Пиксели*Кадры): 0.439
Размер потока: 891 Мбайт (87%)
Аудио #1
Идентификатор: 128 (0x80)
Формат: AC-3
Формат/Информация: Audio Coding 3
Расширение режима: CM (complete main)
Продолжительность: 27 м.
Вид битрейта: Постоянный
Битрейт: 384 Кбит/сек
Канал(ы): 5 канала(ов)
Расположение каналов: Front: L C R, Side: L R
Частота: 48,0 КГц
Битовая глубина: 16 бит
Метод сжатия: С потерями
Размер потока: 75,2 Мбайт (7%)
Аудио #2
Идентификатор: 129 (0x81)
Формат: AC-3
Формат/Информация: Audio Coding 3
Расширение режима: CM (complete main)
Продолжительность: 27 м.
Вид битрейта: Постоянный
Битрейт: 192 Кбит/сек
Канал(ы): 2 канала(ов)
Расположение каналов: Front: L R
Частота: 48,0 КГц
Битовая глубина: 16 бит
Метод сжатия: С потерями
Размер потока: 37,6 Мбайт (4%)
Меню

Оскар, 1961 год
Победитель (5):
* Лучший фильм
* Лучший режиссер (Билли Уайлдер)
* Лучший оригинальный сценарий
* Лучшая работа художника (ч/б фильмы)
* Лучший монтаж
Номинации (5):
* Лучшая мужская роль (Джек Леммон)
* Лучшая женская роль (Ширли МакЛейн)
* Лучшая мужская роль второго плана (Джек Крушен)
* Лучшая работа оператора (ч/б фильмы)
* Лучший звук
Золотой глобус, 1961 год
Победитель (3):
* Лучшая женская роль (комедия или мюзикл) (Ширли МакЛейн)
* Лучшая мужская роль (комедия или мюзикл) (Джек Леммон)
* Лучший фильм (комедия)
Номинации (1):
* Лучший режиссер (Билли Уайлдер)
Британская академия, 1961 год
Победитель (3):
* Лучший фильм
* Лучший иностранный актер (Джек Леммон)
* Лучшая иностранная актриса (Ширли МакЛейн)
Венецианский кинофестиваль, 1960 год
Победитель (1):
* Кубок Вольпи за лучшую женскую роль (Ширли МакЛейн)
Номинации (1):
* Золотой лев




























Поделиться:




реклама партнёра


Вернуться к началу
 Профиль Отправить личное сообщение  
 
   Похожие торренты   Автор   Торрент   Размер 
В этой теме нет новых непрочитанных сообщений. Билли и Билли / Billy and Billie [S01x01-10 из 10] (Нил ЛаБут) [2015, Драма, мелодрама, комедия, WEB-DL 720p | Lord32x Studio]

Dracon

8 | 5

8.95 ГБ

В этой теме нет новых непрочитанных сообщений. Билли и Билли / Billy and Billie [S01x01-10 из 10] (Нил ЛаБут) [2015, Драма, мелодрама, комедия, WEB-DLRip | Lord32x Studio]

Dracon

11 | 11

4.4 ГБ

В этой теме нет новых непрочитанных сообщений. Квартира / L'appartement [драма, мелодрама, 1996] DVDRip, Dvo

salma3

104 | 5

1.46 ГБ

В этой теме нет новых непрочитанных сообщений. С террасы / From the Terrace [драма, мелодрама, 1960] WEB-DLRip, Mvo+Dvo [Первый канал]

salma3

6 | 3

2.19 ГБ

В этой теме нет новых непрочитанных сообщений. Не верь су*** из квартиры 23 / Don't Trust the B---- in Apartment 23 [S01] (Крис Кох, Майкл Спиллер, Венди Станцлер) [2012, Комедия, WEB-DLRip | Novamedia]

Nickolas3435

24 | 5

1.71 ГБ

В этой теме нет новых непрочитанных сообщений. Не верь су*** из квартиры 23 / Don't Trust the B---- in Apartment 23 [S02] (Крис Кох, Майкл Спиллер, Венди Станцлер) [2013, Комедия, WEB-DLRip | Несмертельное оружие]

Nickolas3435

56 | 5

6.49 ГБ

В этой теме нет новых непрочитанных сообщений. А вот и она / And So It Goes [Драма, мелодрама, Комедия, 2014] DVD5, Dub [Лицензия]

Dracon

32 | 3

3.96 ГБ


Начать новую тему Ответить на тему  [ 1 сообщение ] 




Для Мосгорсуда, Роскомнадзора и рекламодателей:: mosgorsud-torrent[собачка]yandex.ru