Торрент файл
скачать торрент магнет ссылка Добавлен: 08 янв 2012, 21:44
Размер: 3.94 ГБ
Сидеров: 1
Личеров: 6
Автор

СообщениеДобавлено: 08 янв 2012, 21:44 

Не в сети
Супермодератор
Аватара пользователя
Дата регистрации:
11 апр 2010, 18:10
Спасибо: 5960 / 7
Сообщения: 56765
Китайскiй сервизъ (Китайский сервиз)

Перевод: Не требуется
Субтитры: Русские, английские
Формат: DVD5, DVD Video, MPEG2, AC3
Страна: Россия
Режиссер: Виталий Москаленко
Жанр: Комедия
Продолжительность: 01:36:23
Год выпуска: 1999

В ролях: Олег Янковский, Анна Самохина, Владимир Меньшов, Сергей Никоненко, Богдан Ступка, Сергей Безруков, Сергей Габриэлян, Ирина Безрукова, Максим Лагашкин, Андрей Давыдов

Описание: ..1913 год. Самый комфортабельный и богатый речной пароход "Святитель Николай" следует по Волге из Царицына в Нижний Новгород на празднование 300-летия Дома Романовых. Мошенники пытаются обыграть в покер Фрола Сатановского, одного из самых богатых купцов в стране. Приманкой служит драгоценное ожерелье, подаренное самим царем певице Волошиной, которая поет в корабельном казино. Ведь Сатановский является заядлым коллекционером подобных раритетов. Волошина влюблена в выдающего себя за нефтяного магната Максуда Хундамова, он-то и ставит на кон ожерелье. Всего мошенников трое - второй выдает себя за правительственного инспектора графа Строганова , а третий компаньон разыгрывает наивного, но богатого молодого скотопромышленника Колю Сидихина. Но оказывается за всей честной компанией следит знаменитый сыщик Мышко... Действие происходит до революции, но создается впечатление, что герои фильма - новые русские.

Рейтинг на КиноПоиск:7.268[/field]
Рейтинг на IMDB:5.9/10[/field][/field]

Видео: 720x576, (PAL 4:3), MPEG2 Video,25,000 кадр/сек, ~ 4683 Кбит/сек
Аудио #1:Русский, 48,0 КГц, AC3, 6 канала(ов), ~448 Кбит/сек
Аудио #2:Русский, 48,0 КГц, AC3, 2 канала(ов), ~224 Кбит/сек

Доп. информация: Релиз от киноконцерна "Крупный План"

Полное имя: F:\Фильмы DVD\Китайскiй сервизъ DVD-5\VIDEO_TS\VTS_01_1.VOB
Формат: MPEG-PS
Размер файла: 1024 Мбайт
Продолжительность: 26 м.
Общий поток: 5463 Кбит/сек
Видео
Идентификатор: 224 (0xE0)
Формат: MPEG Video
Версия формата: Version 2
Профиль формата: Main@Main
Параметр BVOP формата: Да
Параметр матрицы формата: По умолчанию
Продолжительность: 26 м.
Вид битрейта: Переменный
Битрейт: 4683 Кбит/сек
Ширина: 720 пикс.
Высота: 576 пикс.
Соотношение сторон: 4:3
Частота кадров: 25,000 кадр/сек
Стандарт вещания: PAL
Цветовое пространство: YUV
Подвыборка цветности: 4:2:0
Битовая глубина: 8 бит
Метод сжатия: С потерями
Бит/(Пиксели*Кадры): 0.452
Размер потока: 878 Мбайт (86%)
Аудио #1
Идентификатор: 128 (0x80)
Формат: AC-3
Формат/Информация: Audio Coding 3
Расширение режима: CM (complete main)
Продолжительность: 25 м.
Вид битрейта: Постоянный
Битрейт: 448 Кбит/сек
Канал(ы): 6 канала(ов)
Расположение каналов: Front: L C R, Side: L R, LFE
Частота: 48,0 КГц
Битовая глубина: 16 бит
Метод сжатия: С потерями
Задержка видео: 1 м. 0 с.
Размер потока: 80,7 Мбайт (8%)
Аудио #2
Идентификатор: 129 (0x81)
Формат: AC-3
Формат/Информация: Audio Coding 3
Расширение режима: CM (complete main)
Продолжительность: 25 м.
Вид битрейта: Постоянный
Битрейт: 224 Кбит/сек
Канал(ы): 2 канала(ов)
Расположение каналов: Front: L R
Частота: 48,0 КГц
Битовая глубина: 16 бит
Метод сжатия: С потерями
Задержка видео: 59 с.
Размер потока: 40,4 Мбайт (4%)
Текст #1
Идентификатор: 32 (0x20)
Формат: RLE
Формат/Информация: Run-length encoding
Текст #2
Идентификатор: 33 (0x21)
Формат: RLE
Формат/Информация: Run-length encoding
Меню































Поделиться:




реклама партнёра


Вернуться к началу
 Профиль Отправить личное сообщение  
 
   Похожие торренты   Автор   Торрент   Размер 
В этой теме нет новых непрочитанных сообщений. Орлова и Александров [01-16 из 16] (Виталий Москаленко) [Биография, мелодрама, 2015) HDTVRip 720p

Dracon

107 | 42

24.95 ГБ

В этой теме нет новых непрочитанных сообщений. Орлова и Александров [01-16 из 16] (Виталий Москаленко) [2015, Биография, мелодрама, HDTV 1080]

Nickolas3435

68 | 22

53.55 ГБ

В этой теме нет новых непрочитанных сообщений. Беспредельный террор / Terror Firmer [ужасы, триллер, комедия, 1999] DVD5, Dvo

salma3

20 | 9

3.93 ГБ

В этой теме нет новых непрочитанных сообщений. Китайский новый год [Мелодрама, 2017] SATRip

Dracon

225 | 7

1.22 ГБ

В этой теме нет новых непрочитанных сообщений. Китайский новый год [мелодрама, 2017] HDTVRip

salma3

2237 | 386

1.37 ГБ

В этой теме нет новых непрочитанных сообщений. Китайский новый год (Мелодрама, 2017) HDTVRip-AVC от Files-x

marya111

512 | 70

1.46 ГБ

В этой теме нет новых непрочитанных сообщений. Китайский квартал / Chinatown [триллер, драма, детектив, 1974 НDRip, Mvo

salma3

13 | 2

1.46 ГБ


Начать новую тему Ответить на тему  [ 1 сообщение ] 




Для Мосгорсуда, Роскомнадзора и рекламодателей:: mosgorsud-torrent[собачка]yandex.ru