Торрент файл
скачать торрент магнет ссылка Добавлен: 08 янв 2012, 21:43
Размер: 4.27 ГБ
Сидеров: 4
Личеров: 5
Автор

СообщениеДобавлено: 08 янв 2012, 21:43 

Не в сети
Супермодератор
Аватара пользователя
Дата регистрации:
11 апр 2010, 18:10
Спасибо: 5798 / 7
Сообщения: 56779
Психоз / Psychosis


Перевод: Профессиональный (многоголосый, закадровый)
Субтитры: русские, украинские
Формат: DVD5, DVD Video, MPEG2, AC3
Страна: Великобритания
Режиссер: Рег Тревисс
Жанр: ужасы, триллер, криминал, детектив
Продолжительность: 01:29:24
Год выпуска: 2010

В ролях: Харизма Карпентер, Пол Скалфор, Риччи Харнетт, Джастин Хоукинс, Ти Глейсер, Бернард Кэй, Richard Raynesford, Шон Чэпман, Катрина Рошелль, Томас Гуган

Описание: Зимой 1992 года группа молодых анархистов не побоялась ехать через незнакомую местность и, бросив ей вызов, разбила здесь лагерь. В первую же ночь все они пали жертвами психопата. 15 лет спустя, известная писательница в жанре криминала Сьюзен, очень тонкая натура, вместе с мужем переезжает из ее родной Калифорнии на его родину Англию в поисках покоя. Свою идиллию они находят в уединенном загородном доме. Но дом хранит страшную тайну прошлого, и вскоре Сьюзен придется столкнуться со своим самым страшным кошмаром....

Рейтинг на IMDB: 3.7/10
Рейтинг на КиноПоиске: 3.257
Рейтинг на MPAA: R

Видео: 720x576 (PAL16:9), MPEG-2 Video, 25.000 fps, ~ 9800 kbps avg
Аудио #1: Русский: 48.0 kHz, АС3, 6 ch, ~ 384 Kbps avg [Профессиональный (многоголосый, закадровый)]
Аудио #2: Английский: 48.0 kHz, АС3, 6 ch, ~ 384 Kbps avg [Оригинал]

семпл


    Meню озвученное,анимированное, на русском языке
    Анонсы

Формат: MPEG-PS
Размер файла: 1024 Мбайт
Продолжительность: 22 м.
Режим общего битрейта: Переменный
Общий поток: 6490 Кбит/сек

Видео
Идентификатор: 224 (0xE0)
Формат: MPEG Video
Версия формата: Version 2
Профиль формата: Main@Main
Параметр BVOP формата: Да
Параметр матрицы формата: Выборочная
Продолжительность: 22 м.
Вид битрейта: Переменный
Битрейт: 5593 Кбит/сек
Максимальный битрейт: 9800 Кбит/сек
Ширина: 720 пикселей
Высота: 576 пикселей
Соотношение сторон: 16:9
Частота кадров: 25,000 кадров/сек
Стандарт вещания: PAL
Цветовое пространство: YUV
Субдискретизация насыщенности: 4:2:0
Битовая глубина: 8 бит
Тип развёртки: Чересстрочная
Порядок развёртки: Верхнее поле первое
Метод сжатия: С потерями
Бит/(Пиксели*Кадры): 0.539
Размер потока: 882 Мбайт (86%)

Аудио #1
Идентификатор: 189 (0xBD)-128 (0x80)
Формат: AC-3
Формат/Информация: Audio Coding 3
Расширение режима: CM (complete main)
Режим смешивания: DVD-Video
Продолжительность: 22 м.
Вид битрейта: Постоянный
Битрейт: 384 Кбит/сек
Каналы: 6 каналов
Расположение каналов: Front: L C R, Side: L R, LFE
Частота: 48,0 КГц
Битовая глубина: 16 бит
Метод сжатия: С потерями
Размер потока: 60,6 Мбайт (6%)

Аудио #2
Идентификатор: 189 (0xBD)-129 (0x81)
Формат: AC-3
Формат/Информация: Audio Coding 3
Расширение режима: CM (complete main)
Режим смешивания: DVD-Video
Продолжительность: 22 м.
Вид битрейта: Постоянный
Битрейт: 384 Кбит/сек
Каналы: 6 каналов
Расположение каналов: Front: L C R, Side: L R, LFE
Частота: 48,0 КГц
Битовая глубина: 16 бит
Метод сжатия: С потерями
Размер потока: 60,6 Мбайт (6%)

Текст
Идентификатор: 189 (0xBD)-32 (0x20)
Формат: RLE
Формат/Информация: Run-length encoding
Режим смешивания: DVD-Video
Задержка видео: 4 с. 960 мс.

Меню





















Поделиться:




реклама партнёра


Вернуться к началу
 Профиль Отправить личное сообщение  
 
   Похожие торренты   Автор   Торрент   Размер 
В этой теме нет новых непрочитанных сообщений. Байки из склепа / Tales from the Crypt [ужасы, фэнтези, триллер, комедия, криминал, детектив, 1989] DVD5, Avo

salma3

1 | 3

4.18 ГБ

В этой теме нет новых непрочитанных сообщений. Лимб / Haunter [ужасы, триллер, детектив, 2013] DVD5, Dub

salma3

9 | 4

4.36 ГБ

В этой теме нет новых непрочитанных сообщений. Служители / Acolytes [Ужасы, триллер, драма, криминал, 2008] DVD5, Dvo

salma3

3 | 4

4.36 ГБ

В этой теме нет новых непрочитанных сообщений. Имитатор / Copycat [триллер, драма, криминал, детектив, 1995] DVD5, Mvo+Sub

salma3

4 | 2

4.26 ГБ

В этой теме нет новых непрочитанных сообщений. Черная роза / Black Rose [Детектив, триллер, криминал, 2014] DVD5 [Лицензия]

Dracon

63 | 8

4.29 ГБ

В этой теме нет новых непрочитанных сообщений. Мистериум. Начало / Kvinden i Buret [триллер, криминал, детектив, 2013] DVD5, Mvo [Лицензия]

Dracon

191 | 7

3.44 ГБ

В этой теме нет новых непрочитанных сообщений. Убийца / Sicario [Боевик, триллер, драма, криминал, детектив, 2015] DVD5, Dub [iTunes]

salma3

78 | 15

4.03 ГБ


Начать новую тему Ответить на тему  [ 1 сообщение ] 




Для Мосгорсуда, Роскомнадзора и рекламодателей:: mosgorsud-torrent[собачка]yandex.ru