Торрент файл
скачать торрент магнет ссылка Добавлен: 08 янв 2012, 21:43
Размер: 4.29 ГБ
Сидеров: 1
Личеров: 5
Автор

СообщениеДобавлено: 08 янв 2012, 21:43 

Не в сети
Супермодератор
Аватара пользователя
Дата регистрации:
11 апр 2010, 18:10
Спасибо: 5960 / 7
Сообщения: 56765
Автомобиль, скрипка и собака Клякса

Перевод: Не требуется
Субтитры: отсутствуют
Формат: DVD5, DVD Video, MPEG2, AC3
Страна: СССР
Режиссер: Ролан Быков
Жанр: Мюзикл, семейный
Продолжительность: 01:36:00
Год выпуска: 1974

В ролях: Олег Анофриев, Ролан Быков, Георгий Вицин, Зиновий Гердт, Николай Гринько, Михаил Козаков, Алексей Смирнов, Спартак Мишулин, Александр Чернявский, Наталья Тенищева

Описание: В самую красивую девочку двора влюблены двое друзей — пятиклассников. Один из них — «технарь», мастер на все руки, другой — музыкант, скрипач. Ветреная красавица демонстрирует свою благосклонность то одному, то другому… А ее маленький братик Кузя хочет всего — навсего много кошек, чтобы сделать из них обезьяну, потому что из обезьяны легко сделать медведя, потому что из медведя уже совсем просто сделать товарища…

Рейтинг на КиноПоиск:7.218[/field]
Рейтинг на IMDB:6.1/10[/field][/field]

Видео: 720x576, ( PAL 4:3), MPEG2 Video, 25,000 кадр/сек, ~ 5400 Кбит/сек
Аудио: Русский, 48,0 КГц, AC3, 2 канала(ов), ~192 Кбит/сек

Доп. информация: Киноконцерн "Крупный план" без реставрации

Полное имя: F:\Фильмы DVD\Автомобиль, скрипка и собака Клякса DVD-5\VIDEO_TS\VTS_03_1.VOB
Формат: MPEG-PS
Размер файла: 1024 Мбайт
Продолжительность: 25 м.
Общий поток: 5698 Кбит/сек
Видео
Идентификатор: 224 (0xE0)
Формат: MPEG Video
Версия формата: Version 2
Профиль формата: Main@Main
Параметр BVOP формата: Да
Параметр матрицы формата: По умолчанию
Продолжительность: 25 м.
Вид битрейта: Постоянный
Битрейт: 5400 Кбит/сек
Ширина: 720 пикс.
Высота: 576 пикс.
Соотношение сторон: 4:3
Частота кадров: 25,000 кадр/сек
Стандарт вещания: PAL
Цветовое пространство: YUV
Подвыборка цветности: 4:2:0
Битовая глубина: 8 бит
Тип развёртки: Чересстрочная
Порядок развёртки: Нижнее поле первое
Метод сжатия: С потерями
Бит/(Пиксели*Кадры): 0.521
Размер потока: 969 Мбайт (95%)
Аудио
Идентификатор: 128 (0x80)
Формат: AC-3
Формат/Информация: Audio Coding 3
Расширение режима: CM (complete main)
Продолжительность: 25 м.
Вид битрейта: Постоянный
Битрейт: 192 Кбит/сек
Канал(ы): 2 канала(ов)
Расположение каналов: Front: L R
Частота: 48,0 КГц
Битовая глубина: 16 бит
Метод сжатия: С потерями
Размер потока: 34,5 Мбайт (3%)
Меню
























Поделиться:




реклама партнёра


Вернуться к началу
 Профиль Отправить личное сообщение  
 
   Похожие торренты   Автор   Торрент   Размер 
В этой теме нет новых непрочитанных сообщений. Красавица и чудовище / Beauty and the Beast [Мюзикл, фэнтези, мелодрама, семейный, 2017] DVD5, Dub

salma3

96 | 28

4.37 ГБ

В этой теме нет новых непрочитанных сообщений. Тимбер – говорящая собака / Timber the Treasure Dog [семейный, 2016] WEB-DLRip, Dvo

salma3

812 | 93

1.37 ГБ

В этой теме нет новых непрочитанных сообщений. Собака, cпасшая Пасху / The Dog Who Saved Easter [приключения, семейный, 2014] WEB-DLRip, Mvo

salma3

14 | 13

1.46 ГБ

В этой теме нет новых непрочитанных сообщений. Ленни - чудо собака! / Lenny the Wonder Dog [Комедия, приключения, семейный, 2004] DVDRip, Mvo

salma3

59 | 9

770.34 МБ

В этой теме нет новых непрочитанных сообщений. Любит свой автомобиль [2014 г., Amateur, CamRip]

Dievas

8 | 2

205.9 МБ

В этой теме нет новых непрочитанных сообщений. Красный райдинг 1974 / Red Riding 1974 [детектив, 2009] BDRip 720p, Dvo+Sub

salma3

83 | 9

4.04 ГБ

В этой теме нет новых непрочитанных сообщений. Автомобиль-убийца / The Car [Триллер, детектив, ужасы, 1977] BDRip 720p, Dub

salma3

65 | 8

4.37 ГБ


Начать новую тему Ответить на тему  [ 1 сообщение ] 




Для Мосгорсуда, Роскомнадзора и рекламодателей:: mosgorsud-torrent[собачка]yandex.ru