Торрент файл
скачать торрент магнет ссылка Добавлен: 08 янв 2012, 21:43
Размер: 3.67 ГБ
Сидеров: 2
Личеров: 6
Автор

СообщениеДобавлено: 08 янв 2012, 21:43 

Не в сети
Супермодератор
Аватара пользователя
Дата регистрации:
11 апр 2010, 18:10
Спасибо: 5960 / 7
Сообщения: 56765
Агенты КГБ тоже влюбляются

Перевод: Не требуется
Субтитры: отсутствуют
Формат: DVD5, DVD Video, MPEG2, AC3
Страна: СССР, Чили
Режиссер: Себастьян Аларкон
Жанр: Мелодрама, комедия
Продолжительность: 01:23:26
Год выпуска: 1991

В ролях: Сергей Газаров, Лус Кроксатто, Армен Джигарханян, Кристиан Гарсия, Уидобро Глория Мунчмейер, Луис Аларкон, Ольга Толстецкая, Наталья Крачковская, Леонид Куравлёв, Сергей Никоненко

Описание: Даже агентам КГБ совсем не чужды маленькие человеческие слабости, такие как, например, «налево сходить», «фарцовочку провернуть», на гитаре «сбацать» и влюбиться по уши в девчонку из публичного дома, а при необходимости обычный бордель превратить в доходное совместное предприятие.

Рейтинг на КиноПоиск:4.676[/field]
Рейтинг на IMDB:5.2/10[/field][/field]

Видео: 720x576, ( PAL 4:3), MPEG2 Video, 25,000 кадр/сек, ~ 6088 Кбит/сек
Аудио: Русский, 48,0 КГц, AC3, 2 канала(ов), ~192 Кбит/сек

Полное имя: К:\Агенты КГБ тоже влюбляются\VIDEO_TS\VTS_01_1.VOB
Формат: MPEG-PS
Размер файла: 1024 Мбайт
Продолжительность: 22 м.
Общий поток: 6408 Кбит/сек
Видео
Идентификатор: 224 (0xE0)
Формат: MPEG Video
Версия формата: Version 2
Профиль формата: Main@Main
Параметр BVOP формата: Да
Параметр матрицы формата: По умолчанию
Продолжительность: 22 м.
Вид битрейта: Переменный
Битрейт: 6088 Кбит/сек
Номинальный битрейт: 8000 Кбит/сек
Ширина: 720 пикс.
Высота: 576 пикс.
Соотношение сторон: 4:3
Частота кадров: 25,000 кадр/сек
Стандарт вещания: PAL
Цветовое пространство: YUV
Подвыборка цветности: 4:2:0
Битовая глубина: 8 бит
Метод сжатия: С потерями
Бит/(Пиксели*Кадры): 0.587
Размер потока: 972 Мбайт (95%)
Аудио
Идентификатор: 128 (0x80)
Формат: AC-3
Формат/Информация: Audio Coding 3
Расширение режима: CM (complete main)
Продолжительность: 22 м.
Вид битрейта: Постоянный
Битрейт: 192 Кбит/сек
Канал(ы): 2 канала(ов)
Расположение каналов: Front: L R
Частота: 48,0 КГц
Битовая глубина: 16 бит
Метод сжатия: С потерями
Задержка видео: -50 мс.
Размер потока: 30,7 Мбайт (3%)
Меню


























Поделиться:




реклама партнёра


Вернуться к началу
 Профиль Отправить личное сообщение  
 
   Похожие торренты   Автор   Торрент   Размер 
В этой теме нет новых непрочитанных сообщений. Косухи (Себастьян Аларкон) [Драма, 2013] SATRip

Dracon

1 | 0

1.37 ГБ

В этой теме нет новых непрочитанных сообщений. Не говори маме, что няня умерла / Don't Tell Mom the Babysitter's Dead [комедия, семейный, 1991] DVD5, Dvo

salma3

22 | 22

4.03 ГБ

В этой теме нет новых непрочитанных сообщений. Агенты А.Н.К.Л. / The Man from U.N.C.L.E. (Гай Ричи) [боевик, комедия, приключения, 2015] WEB-DLRip, Avo

Dracon

159 | 8

1.4 ГБ

В этой теме нет новых непрочитанных сообщений. Агенты А.Н.К.Л. / The Man from U.N.C.L.E. [боевик, комедия, приключения, 2015] BDRip, Avo+Sub [Гаврилов]

salma3

83 | 11

1.45 ГБ

В этой теме нет новых непрочитанных сообщений. Агенты А.Н.К.Л. / The Man from U.N.C.L.E. (Гай Ричи) [боевик, комедия, приключения, 2015] WEB-DL 1080p, Avo+Sub

Dracon

84 | 1

3.94 ГБ

В этой теме нет новых непрочитанных сообщений. Агенты А.Н.К.Л. / The Man from U.N.C.L.E. (Гай Ричи) [боевик, комедия, приключения, 2015] WEB-DL 720p, Avo+Sub

Dracon

123 | 9

3.61 ГБ

В этой теме нет новых непрочитанных сообщений. Агенты А.Н.К.Л. / The Man from U.N.C.L.E. (Гай Ричи) [боевик, комедия, приключения, 2015] WEB-DL 720p, Dub [iTunes]

Dracon

58 | 3

3.93 ГБ


Начать новую тему Ответить на тему  [ 1 сообщение ] 




Для Мосгорсуда, Роскомнадзора и рекламодателей:: mosgorsud-torrent[собачка]yandex.ru