Торрент файл
скачать торрент магнет ссылка Добавлен: 08 янв 2012, 21:43
Размер: 7.55 ГБ
Сидеров: 3
Личеров: 5
Автор

СообщениеДобавлено: 08 янв 2012, 21:43 

Не в сети
Супермодератор
Аватара пользователя
Дата регистрации:
11 апр 2010, 18:10
Спасибо: 5801 / 7
Сообщения: 56779
Бермудский треугольник (3 серии из 3) / The Triangle

Перевод: Профессиональный (многоголосый, закадровый)
Cубтитры: отсутствуют
Формат: DVD5, DVD Video, MPEG2, AC3
Страна: США, Великобритания
Режиссер: Крэйг Р. Бэксли
Жанр: Фантастика, боевик, триллер, драма, детектив, приключения
Продолжительность: 01:28:24+01:23:01+01:23:27
Год выпуска: 2005

В ролях: Эрик Столц, Катрин Белл, Лу Дайэмонд Филлипс, Брюс Дэвисон, Майкл Э. Роджерс, Сэм Нил, Лиза Бреннер, Джон Слоун, Чарльз Мартин Смит, Бэрри Ингэм

Описание: Миллиардер Эрик Бениролл нанимает команду специалистов, чтобы те попытались выяснить причину исчезновения в районе Бермудского треугольника принадлежавших ему кораблей. Команда — журналист-скептик, инженер, ученый и экстрасенс — отправились в заданный район и вскоре столкнулись с аномальными явлениями, но, как оказалось, это — только начало. Что происходит? Куда они плывут? Они живы или мертвы? Пришельцы или что-то еще?…

Рейтинг на КиноПоиск:7.179[/field]
Рейтинг на IMDB:6.5/10[/field][/field]

Диск 1-4.37 Gb ( 4 577 710 KBytes ) 1 и 2 серии
Диск 2-3.19 Gb ( 3 340 118 KBytes ) 3 серия

Видео: 720x480, (NTSC 16:9), MPEG2 Video, 23,976 кадр/сек, ~ 9800 Кбит/сек
Аудио #1:Русский, 48,0 КГц, AC3, 6 канала(ов), ~448 Кбит/сек[Профессиональный (многоголосый, закадровый)]
Аудио #2:Английский, 48,0 КГц, AC3, 6 канала(ов), ~448 Кбит/сек[Оригинал][/field]

Доп. информация: Релиз на DVD27 октября 2011, «Союз-Видео»

Полное имя: C:\Бермудский треугольник (2xDVD5)\Диск1\VIDEO_TS\VTS_03_1.VOB
Формат: MPEG-PS
Размер файла: 1024 Мбайт
Продолжительность: 37 м.
Общий поток: 3787 Кбит/сек
Видео
Идентификатор: 224 (0xE0)
Формат: MPEG Video
Версия формата: Version 2
Профиль формата: Main@Main
Параметр BVOP формата: Да
Параметр матрицы формата: По умолчанию
Продолжительность: 37 м.
Вид битрейта: Переменный
Битрейт: 2815 Кбит/сек
Номинальный битрейт: 9800 Кбит/сек
Ширина: 720 пикс.
Высота: 480 пикс.
Соотношение сторон: 16:9
Частота кадров: 23,976 кадр/сек
Стандарт вещания: NTSC
Цветовое пространство: YUV
Подвыборка цветности: 4:2:0
Битовая глубина: 8 бит
Тип развёртки: Прогрессивная
Порядок развёртки: 2:3 Pulldown
Метод сжатия: С потерями
Бит/(Пиксели*Кадры): 0.340
Размер потока: 761 Мбайт (74%)
Аудио #1
Идентификатор: 128 (0x80)
Формат: AC-3
Формат/Информация: Audio Coding 3
Расширение режима: CM (complete main)
Продолжительность: 37 м.
Вид битрейта: Постоянный
Битрейт: 448 Кбит/сек
Канал(ы): 6 канала(ов)
Расположение каналов: Front: L C R, Side: L R, LFE
Частота: 48,0 КГц
Битовая глубина: 16 бит
Метод сжатия: С потерями
Размер потока: 121 Мбайт (12%)
Аудио #2
Идентификатор: 129 (0x81)
Формат: AC-3
Формат/Информация: Audio Coding 3
Расширение режима: CM (complete main)
Продолжительность: 37 м.
Вид битрейта: Постоянный
Битрейт: 448 Кбит/сек
Канал(ы): 6 канала(ов)
Расположение каналов: Front: L C R, Side: L R, LFE
Частота: 48,0 КГц
Битовая глубина: 16 бит
Метод сжатия: С потерями
Размер потока: 121 Мбайт (12%)
Текст
Идентификатор: 224 (0xE0)-DVD-2
Формат: EIA-608
Режим смешивания: DVD-Video
Режим смешивания, доп. информаци : Muxed in Video #1
Размер потока: 0,00 байт (0%)
Меню




































Поделиться:




реклама партнёра


Вернуться к началу
 Профиль Отправить личное сообщение  
 
   Похожие торренты   Автор   Торрент   Размер 
В этой теме нет новых непрочитанных сообщений. Бермудский треугольник / The Bermuda Triangle [мистика, 1978] DVDRip, Mvo

salma3

259 | 19

1.36 ГБ

В этой теме нет новых непрочитанных сообщений. Город грехов 1-2 / Sin City 1-2 (Боевик, триллер, 2005-2014) 2xDVD5, Dub [Сжатый]

Dracon

40 | 11

8.74 ГБ

В этой теме нет новых непрочитанных сообщений. Андромеда / Andromeda / 1-5 сезоны 1-110 серии из 110 [фантастика, боевик, приключения, 2000–2005] DVDRip-AVC, Mvo [СТС]

salma3

8 | 8

86.79 ГБ

В этой теме нет новых непрочитанных сообщений. Девять / 9 [мультфильм, фантастика, фэнтези, боевик, триллер, драма, детектив, приключения, 2009] BDRip 720p, Dub+Avo+Sub

salma3

167 | 9

3.1 ГБ

В этой теме нет новых непрочитанных сообщений. Z – значит Захария / Z for Zachariah (Крэйг Зобел) [Фантастика, драма, триллер, 2015] HDRip, avo

Dracon

1233 | 55

1.29 ГБ

В этой теме нет новых непрочитанных сообщений. Z – значит Захария / Z for Zachariah (Крэйг Зобел) [Фантастика, драма, триллер, 2015] WEB-DLRip 720p, avo

Dracon

414 | 18

3.17 ГБ

В этой теме нет новых непрочитанных сообщений. И грянул гром / A Sound of Thunder [ужасы, фантастика, боевик, триллер, приключения, 2005] BDRip 1080p, Dub

salma3

36 | 7

11.61 ГБ


Начать новую тему Ответить на тему  [ 1 сообщение ] 




Для Мосгорсуда, Роскомнадзора и рекламодателей:: mosgorsud-torrent[собачка]yandex.ru