Торрент файл
скачать торрент магнет ссылка Добавлен: 08 янв 2012, 21:43
Размер: 4.2 ГБ
Сидеров: 0
Личеров: 12
Автор

СообщениеДобавлено: 08 янв 2012, 21:43 

Не в сети
Супермодератор
Аватара пользователя
Дата регистрации:
11 апр 2010, 18:10
Спасибо: 5798 / 7
Сообщения: 56779
Будни уголовного розыска

Перевод: Не требуется
Субтитры: отсутствуют
Формат: DVD5, DVD Video, MPEG2, AC3
Страна: СССР
Режиссер: Суламифь Цыбульник
Жанр: Детектив
Продолжительность: 01:22:27
Год выпуска: 1973

В ролях: Борис Зайденберг, Николай Лебедев, Виктор Мирошниченко, Павел Кормунин, Владимир Нечипоренко, Юрий Каморный, Лев Перфилов, Михаил Водяно,й Борис Мирус, Константин Степанков

Описание: Вот уже несколько месяцев ведётся следствие по делу об ограблении кассира в посёлке Аэропорт. Помощникам начальника уголовного розыска Миронова удалось нащупать прямые следы, ведущие к вору-рецидивисту Панасюку, отбывающему наказание в колонии за мелкую кражу. Но Панасюк умер от инфаркта, а единственный его дружок Хлопов уже отбыл срок, вышел на волю и… бесследно исчез. Это одно из дел, которые ведёт и контролирует Миронов. Но его заботы не исчерпываются только расследованием преступлений. Он остро ощущает свою ответственность за всё, что происходит в городе.

Рейтинг на КиноПоиск:5.645[/field]
Рейтинг на IMDB:Без оценки[/field][/field]

Видео: 720x576, ( PAL 4:3), MPEG2 Video, 25,000 кадр/сек, ~ 7930 Кбит/сек
Аудио: Русский, 48,0 КГц, AC3, 2 канала(ов), ~192 Кбит/сек

Полное имя: I:\Фильмы DVD\Наши\Будни уголовного розыска DVD-5\VIDEO_TS\VTS_22_1.VOB
Формат: MPEG-PS
Размер файла: 1024 Мбайт
Продолжительность: 24 м.
Общий поток: 5946 Кбит/сек
Видео
Идентификатор: 224 (0xE0)
Формат: MPEG Video
Версия формата: Version 2
Профиль формата: Main@Main
Параметр BVOP формата: Да
Параметр матрицы формата: По умолчанию
Параметры GOP формата: M=3, N=12
Продолжительность: 24 м.
Вид битрейта: Переменный
Битрейт: 5635 Кбит/сек
Номинальный битрейт: 7930 Кбит/сек
Ширина: 720 пикс.
Высота: 576 пикс.
Соотношение сторон: 4:3
Частота кадров: 25,000 кадр/сек
Стандарт вещания: PAL
Цветовое пространство: YUV
Подвыборка цветности: 4:2:0
Битовая глубина: 8 бит
Тип развёртки: Прогрессивная
Порядок развёртки: Нижнее поле первое
Метод сжатия: С потерями
Бит/(Пиксели*Кадры): 0.544
Размер потока: 971 Мбайт (95%)
Аудио
Идентификатор: 128 (0x80)
Формат: AC-3
Формат/Информация: Audio Coding 3
Расширение режима: CM (complete main)
Продолжительность: 24 м.
Вид битрейта: Постоянный
Битрейт: 192 Кбит/сек
Канал(ы): 2 канала(ов)
Расположение каналов: Front: L R
Частота: 48,0 КГц
Битовая глубина: 16 бит
Метод сжатия: С потерями
Размер потока: 33,1 Мбайт (3%)
Меню






























Поделиться:




реклама партнёра


Вернуться к началу
 Профиль Отправить личное сообщение  
 
   Похожие торренты   Автор   Торрент   Размер 
В этой теме нет новых непрочитанных сообщений. Будни аэропорта [01-78] [Мультсериал, познавательный, детский, 2014] WEBRip

Dracon

302 | 58

6.53 ГБ

В этой теме нет новых непрочитанных сообщений. Легенда адского дома / The Legend of Hell House [Ужасы, детектив, 1973] BDRip 720p, Mvo+Avo+Sub

salma3

5 | 2

4.83 ГБ

В этой теме нет новых непрочитанных сообщений. Несколько слишком спокойных господ / Quelques messieurs trop tranquilles [комедия, криминал, детектив, 1973] DVDRip, Mvo

salma3

26 | 7

1.49 ГБ

В этой теме нет новых непрочитанных сообщений. Дом Дьявола / La Casa dell'esorcismo / The House of Exorcism [ужасы, фэнтези, триллер, детектив, 1973] BDRemux 1080p, Avo

salma3

10 | 3

17.23 ГБ

В этой теме нет новых непрочитанных сообщений. Уик-энд / Weekend [детектив, драма, криминал, 2014] DVD5 [лицензия]

Dracon

170 | 32

4.11 ГБ

В этой теме нет новых непрочитанных сообщений. Лимб / Haunter [ужасы, триллер, детектив, 2013] DVD5, Dub

salma3

9 | 4

4.36 ГБ

В этой теме нет новых непрочитанных сообщений. Французский шпион [боевик, детектив, 2014] DVD5 [Лицензия]

Dracon

85 | 7

4.19 ГБ


Начать новую тему Ответить на тему  [ 1 сообщение ] 




Для Мосгорсуда, Роскомнадзора и рекламодателей:: mosgorsud-torrent[собачка]yandex.ru