Торрент файл
скачать торрент магнет ссылка Добавлен: 08 янв 2012, 21:42
Размер: 4.17 ГБ
Сидеров: 0
Личеров: 5
Автор

СообщениеДобавлено: 08 янв 2012, 21:42 

Не в сети
Супермодератор
Аватара пользователя
Дата регистрации:
11 апр 2010, 18:10
Спасибо: 5798 / 7
Сообщения: 56779
Глория / Gloria

Перевод: Профессиональный (многоголосый, закадровый)
Cубтитры: Английские, французские, испанские, корейские
Формат: DVD5, DVD Video, MPEG2, AC3
Страна: США
Режиссер: Джон Кассаветис
Жанр: Триллер, драма, криминал
Продолжительность: 02:03:32
Год выпуска: 1980

В ролях: Джина Роулендс, Джули Кармен, Тони Кнесич, Грегори Клегхорн, Бак Генри, Джон Адамес,Джессика Кастилло, Том Нунен, Рональд Макконе

Описание: Бывшая подружка гангстера Глория Свенсон находится в трудном положении: в ее квартире прячется шестилетний соседский мальчишка-пуэрториканец Фил Дон, ставший свидетелем расправы мафии над своими родителями. В руках ребенка серьезный компромат на бандитов. Что же делать: отдать мальчишку на растерзание мафии, либо бежать вместе с ним в неизвестность? И Глория выбирает путь борьбы…

Рейтинг на КиноПоиск:7.150[/field]
Рейтинг MPAA :PG[/field]
Рейтинг на IMDB:6.9/10[/field][/field]

Видео: 720x480, (NTSC 16:9), MPEG2 Video, 29,970 кадр/сек, ~ 9800 Кбит/сек
Аудио #1:Русский, 48,0 КГц, AC3, 2 канала(ов), ~192 Кбит/сек [Профессиональный (многоголосый, закадровый)]
Аудио #2:Английский, 48,0 КГц, AC3, 2 канала(ов), ~192 Кбит/сек [Оригинал][/field]

Доп. информация: Фильм найден в сети DC++.
Обложка только французская, накатку для диска сделать не доходят руки.
Фильм 1999 г с аналогичным названием выложу в скором времени.


Полное имя: D:\Глория DVD-5\VIDEO_TS\VTS_01_1.VOB
Формат: MPEG-PS
Размер файла: 1024 Мбайт
Продолжительность: 26 м.
Общий поток: 5478 Кбит/сек
Видео
Идентификатор: 224 (0xE0)
Формат: MPEG Video
Версия формата: Version 2
Профиль формата: Main@Main
Параметр BVOP формата: Да
Параметр матрицы формата: По умолчанию
Продолжительность: 26 м.
Вид битрейта: Переменный
Битрейт: 4985 Кбит/сек
Номинальный битрейт: 9800 Кбит/сек
Ширина: 720 пикс.
Высота: 480 пикс.
Соотношение сторон: 16:9
Частота кадров: 29,970 кадр/сек
Стандарт вещания: NTSC
Цветовое пространство: YUV
Подвыборка цветности: 4:2:0
Битовая глубина: 8 бит
Метод сжатия: С потерями
Бит/(Пиксели*Кадры): 0.481
Размер потока: 932 Мбайт (91%)
Аудио #1
Идентификатор: 128 (0x80)
Формат: AC-3
Формат/Информация: Audio Coding 3
Расширение режима: CM (complete main)
Продолжительность: 26 м.
Вид битрейта: Постоянный
Битрейт: 192 Кбит/сек
Канал(ы): 2 канала(ов)
Расположение каналов: Front: L R
Частота: 48,0 КГц
Битовая глубина: 16 бит
Метод сжатия: С потерями
Размер потока: 35,9 Мбайт (4%)
Аудио #2
Идентификатор: 129 (0x81)
Формат: AC-3
Формат/Информация: Audio Coding 3
Расширение режима: CM (complete main)
Продолжительность: 26 м.
Вид битрейта: Постоянный
Битрейт: 192 Кбит/сек
Канал(ы): 2 канала(ов)
Расположение каналов: Front: L R
Частота: 48,0 КГц
Битовая глубина: 16 бит
Метод сжатия: С потерями
Размер потока: 35,9 Мбайт (4%)
Меню

Оскар, 1981 год
Номинации (1):
* Лучшая женская роль (Джина Роулендс)
Золотой глобус, 1981 год
Номинации (1):
* Лучшая женская роль (драма) (Джина Роулендс)
Золотая малина, 1981 год
Победитель (1):
* Худшая мужская роль второго плана (Джон Адамес)
Венецианский кинофестиваль, 1980 год
Победитель (1):
* Золотой лев




















Поделиться:




реклама партнёра


Вернуться к началу
 Профиль Отправить личное сообщение  
 
   Похожие торренты   Автор   Торрент   Размер 
В этой теме нет новых непрочитанных сообщений. Глория / Gloria (Себастьян Лелио / Sebastián Lelio) [2013г., драма, комедия, BDRip 720p] MVO

Alfredovich

51 | 6

4.53 ГБ

В этой теме нет новых непрочитанных сообщений. Маньяк / Maniac [ужасы, триллер, драма, криминал, 1980] BDRip 720p, Avo+Sub

salma3

40 | 0

4.48 ГБ

В этой теме нет новых непрочитанных сообщений. Американский жиголо / American Gigolo [Триллер, драма, криминал, 1980] BDRip 1080p, 2Mvo+4Avo

salma3

3 | 3

19.41 ГБ

В этой теме нет новых непрочитанных сообщений. Фокус / Focus (Гленн Фикарра, Джон Рекуа) [драма, мелодрама, комедия, криминал, 2015] DVD5, Dub+Sub [Лицензия]

Dracon

169 | 26

4.36 ГБ

В этой теме нет новых непрочитанных сообщений. Дядя Джон / Uncle John [Триллер, драма, мелодрама, криминал, детектив, 2015] WEB-DLRip, dvo

Dracon

266 | 7

1.37 ГБ

В этой теме нет новых непрочитанных сообщений. Замкнутая цепь / Closed Circuit (Джон Краули) [триллер, драма, криминал, детектив, 2013] HDRip, Mvo

Dracon

426 | 11

1.46 ГБ

В этой теме нет новых непрочитанных сообщений. Стоп-кадр / Freeze Frame (Джон Симпсон / John Simpson) [2004г., триллер, драма, криминал, DVDRip] DVO

Alfredovich

9 | 3

1.47 ГБ


Начать новую тему Ответить на тему  [ 1 сообщение ] 




Для Мосгорсуда, Роскомнадзора и рекламодателей:: mosgorsud-torrent[собачка]yandex.ru