Торрент файл
скачать торрент магнет ссылка Добавлен: 08 янв 2012, 21:42
Размер: 3.95 ГБ
Сидеров: 3
Личеров: 6
Автор

СообщениеДобавлено: 08 янв 2012, 21:42 

Не в сети
Супермодератор
Аватара пользователя
Дата регистрации:
11 апр 2010, 18:10
Спасибо: 5798 / 7
Сообщения: 56779
Делай - раз!

Перевод: Не требуется
Субтитры: отсутствуют
Формат: DVD5, DVD Video, MPEG2, AC3
Страна: СССР
Режиссер: Андрей Малюков
Жанр: Драма
Продолжительность: 01:20:42
Год выпуска: 1989

В ролях: Евгений Миронов, Владимир Машков, Александр Домогаров, Сергей Шенталинский, Алексей Бурыкин, Александр Миронов, Дмитрий Орлов, Александр Польков, Владимир Смирнов, Олег Александров

Описание: Новобранец Алексей Гаврилов попадает в часть, где царит дедовщина. Он как может сопротивляется трем «дедам», которые накануне дембеля решают по максимуму отыграться на «черепах» за былые унижения. Вскоре он находит единомышленника. Не сумев сломить волю строптивцев, «деды» осуществляют подлую провокацию, и тогда Алексей решается на отчаянный шаг.

Рейтинг на КиноПоиск:7.658[/field]
Рейтинг на IMDB:7.4/10[/field][/field]

Видео: 720x576, ( PAL 4:3), MPEG2 Video, 25,000 кадр/сек, ~ 6600 Кбит/сек
Аудио: Русский, 48,0 КГц, AC3, 2 канала(ов), ~192 Кбит/сек

Доп. информация: Релиз от "Крупный План", без реставрации

Полное имя: F:\Фильмы DVD\Делай Раз ! DVD-5\VIDEO_TS\VTS_01_2.VOB
Формат: MPEG-PS
Размер файла: 1024 Мбайт
Продолжительность: 20 м.
Общий поток: 6912 Кбит/сек
Видео
Идентификатор: 224 (0xE0)
Формат: MPEG Video
Версия формата: Version 2
Профиль формата: Main@Main
Параметр BVOP формата: Да
Параметр матрицы формата: По умолчанию
Параметры GOP формата: M=3, N=15
Продолжительность: 20 м.
Вид битрейта: Постоянный
Битрейт: 6600 Кбит/сек
Ширина: 720 пикс.
Высота: 576 пикс.
Соотношение сторон: 4:3
Частота кадров: 25,000 кадр/сек
Стандарт вещания: PAL
Цветовое пространство: YUV
Подвыборка цветности: 4:2:0
Битовая глубина: 8 бит
Тип развёртки: Чересстрочная
Порядок развёртки: Нижнее поле первое
Метод сжатия: С потерями
Бит/(Пиксели*Кадры): 0.637
Размер потока: 975 Мбайт (95%)
Аудио
Идентификатор: 128 (0x80)
Формат: AC-3
Формат/Информация: Audio Coding 3
Расширение режима: CM (complete main)
Продолжительность: 20 м.
Вид битрейта: Постоянный
Битрейт: 192 Кбит/сек
Канал(ы): 2 канала(ов)
Расположение каналов: Front: L R
Частота: 48,0 КГц
Битовая глубина: 16 бит
Метод сжатия: С потерями
Задержка видео: -184 мс.
Размер потока: 28,4 Мбайт (3%)
Меню


























Поделиться:




реклама партнёра


Вернуться к началу
 Профиль Отправить личное сообщение  
 
   Похожие торренты   Автор   Торрент   Размер 
В этой теме нет новых непрочитанных сообщений. Григорий Р. / Распутин [01-08 из 08] (Андрей Малюков) [2014, драма, исторический, SATRip]

Nickolas3435

2232 | 126

4.14 ГБ

В этой теме нет новых непрочитанных сообщений. МосГаз [01-08 из 08] (Андрей Малюков) [Детектив, 2012] HDTVRip

Dracon

665 | 138

6.59 ГБ

В этой теме нет новых непрочитанных сообщений. МосГаз [01-08 из 08] (Андрей Малюков) [Детектив, 2012] HDTV 1080i

Dracon

68 | 10

26.08 ГБ

В этой теме нет новых непрочитанных сообщений. МосГаз [01-06 из 08] (Андрей Малюков) [Детектив, 2012] HDTV 1080i

Dracon

В этой теме нет новых непрочитанных сообщений. МосГаз [01-08 из 08] (Андрей Малюков) [2012, Детектив, HDTVRip 720p]

Nickolas3435

172 | 33

12.45 ГБ

В этой теме нет новых непрочитанных сообщений. Левиафан (Андрей Звягинцев) [Драма, 2014] DVD5

Dracon

5 | 3

4.31 ГБ

В этой теме нет новых непрочитанных сообщений. Коэн и Тейт / Cohen and Tate [триллер, 1989] DVD5, Mvo+Avo

salma3

2 | 2

4.32 ГБ


Начать новую тему Ответить на тему  [ 1 сообщение ] 




Для Мосгорсуда, Роскомнадзора и рекламодателей:: mosgorsud-torrent[собачка]yandex.ru