Торрент файл
скачать торрент магнет ссылка Добавлен: 08 янв 2012, 21:42
Размер: 4.28 ГБ
Сидеров: 0
Личеров: 10
Автор

СообщениеДобавлено: 08 янв 2012, 21:42 

Не в сети
Супермодератор
Аватара пользователя
Дата регистрации:
11 апр 2010, 18:10
Спасибо: 5960 / 7
Сообщения: 56765
Золотой эшелон [Ремастеринг]


Перевод: Не требуется
Субтитры:Отсутствуют
Формат: DVD5, DVD Video, MPEG2, AC3
Страна: СССР
Режиссер: Илья Гурин
Жанр: военный
Продолжительность: 01:34:20
Год выпуска: 1959

В ролях: Василий Шукшин, Елена Добронравова, Харий Лиепиньш, Михаил Козаков, Михаил Зимин, Павел Усовниченко, Степан Крылов, Валентина Беляева, Михаил Бочаров, Петр Вишняков, Аркадий Вовси, Эрвин Кнаусмюллер, Виктор Кольцов, Станислав Коренев, Алексей Краснопольский, Евгений Кузнецов, Сергей Папов, Александр Толстых, Владимир Трошин, Аркадий Трусов, Александр Шатов, Анатолий Юшко, Ян Янакиев

Описание: 1919 год. В Сибири идет гражданская война. Пользуясь полной неразберихой, Генерал Колчак хочет вывезти за границу часть золотого запаса страны. В самый последний момент об этом узнают большевики.
Они решают перехватить эшелон, но не успевают как следует подготовить операцию… Но все же шанс есть. Спасти ситуацию может девушка Надя, в которую страстно влюблен начальник поезда… Несколько километров железнодорожных путей до границы становятся полем битвы между белыми и красными. У тех и других одинаково красная кровь...


Рейтинг на IMDB: 4.6/10
Рейтинг на Кинопоиск.RU: 5.704

Видео: 720x576 (PAL 4:3), 25,000 fps, MPEG 2 Video, ~8500 kbps avg
Аудио:Русский: 48 kHz, AC3, 6 ch, ~384 kbps avg

Семпл

Дополнительно :
Meнюс навигацией по эпизодам
Смотрите на DVD

Формат: MPEG-PS
Размер файла: 1024 Мбайт
Продолжительность: 25 м.
Режим общего битрейта: Переменный
Общий поток: 5622 Кбит/сек

Видео
Идентификатор: 224 (0xE0)
Формат: MPEG Video
Версия формата: Version 2
Профиль формата: Main@Main
Параметр BVOP формата: Да
Параметр матрицы формата: Выборочная
Параметр GOP формата: M=3, N=12
Продолжительность: 25 м.
Вид битрейта: Переменный
Битрейт: 5126 Кбит/сек
Максимальный битрейт: 8500 Кбит/сек
Ширина: 720 пикселей
Высота: 576 пикселей
Соотношение сторон: 4:3
Частота кадров: 25,000 кадров/сек
Стандарт вещания: PAL
Цветовое пространство: YUV
Субдискретизация насыщенности: 4:2:0
Битовая глубина: 8 бит
Тип развёртки: Чересстрочная
Порядок развёртки: Верхнее поле первое
Метод сжатия: С потерями
Бит/(Пиксели*Кадры): 0.494
Размер потока: 934 Мбайт (91%)

Аудио
Идентификатор: 189 (0xBD)-128 (0x80)
Формат: AC-3
Формат/Информация: Audio Coding 3
Расширение режима: CM (complete main)
Режим смешивания: DVD-Video
Продолжительность: 25 м.
Вид битрейта: Постоянный
Битрейт: 384 Кбит/сек
Каналы: 6 каналов
Расположение каналов: Front: L C R, Side: L R, LFE
Частота: 48,0 КГц
Битовая глубина: 16 бит
Метод сжатия: С потерями
Задержка видео: -592 мс.
Размер потока: 69,9 Мбайт (7%)

Меню




















Поделиться:




реклама партнёра


Вернуться к началу
 Профиль Отправить личное сообщение  
 
   Похожие торренты   Автор   Торрент   Размер 
В этой теме нет новых непрочитанных сообщений. Баллада о солдате [военный, драма, мелодрама, 1959] BDRip-AVC

salma3

13 | 10

2.12 ГБ

В этой теме нет новых непрочитанных сообщений. Баллада о солдате [военный, драма, мелодрама, 1959] BDRip

salma3

21 | 7

1.45 ГБ

В этой теме нет новых непрочитанных сообщений. Единичка (Кирилл Белевич) [военный, драма, 2015] DVD5 [Лицензия]

Dracon

345 | 13

4.21 ГБ

В этой теме нет новых непрочитанных сообщений. Батальонъ (Дмитрий Месхиев) [Драма, Военный, Исторический, 2015] DVD5 [iTunes]

Dracon

15 | 2

4.23 ГБ

В этой теме нет новых непрочитанных сообщений. А зори здесь тихие... (Ренат Давлетьяров) [драма, военный, история, 2015] DVD5

Dracon

60 | 4

4.2 ГБ

В этой теме нет новых непрочитанных сообщений. Демоны войны / Demony wojny wedlug Goi [боевик, драма, военный, 1998] DVD5, Mvo+Sub

salma3

7 | 5

4.14 ГБ

В этой теме нет новых непрочитанных сообщений. 13 часов: Тайные солдаты Бенгази / 13 Hours [боевик, триллер, драма, военный, 2016] DVD5, Dub

salma3

3 | 1

4.37 ГБ


Начать новую тему Ответить на тему  [ 1 сообщение ] 




Для Мосгорсуда, Роскомнадзора и рекламодателей:: mosgorsud-torrent[собачка]yandex.ru