Торрент файл
скачать торрент магнет ссылка Добавлен: 08 янв 2012, 21:42
Размер: 3.65 ГБ
Сидеров: 1
Личеров: 6
Автор

СообщениеДобавлено: 08 янв 2012, 21:42 

Не в сети
Супермодератор
Аватара пользователя
Дата регистрации:
11 апр 2010, 18:10
Спасибо: 5802 / 7
Сообщения: 56779
Белый взрыв

Перевод: Не требуется
Субтитры: отсутствуют
Формат: DVD5, DVD Video, MPEG2, AC3
Страна: СССР
Режиссер: Станислав Говорухин
Жанр: Боевик, военный
Продолжительность: 01:10:50
Год выпуска: 1971
В ролях: Сергей Никоненко, Людмила Гурченко, Анатолий Игнатьев, Армен Джигарханян, Федор Одиноков, Бухути Закариадзе, Степан Крылов, Николай Федорцов, Владимир Высоцкий, Николай Иванов

Описание: О солдатах-альпинистах Великой Отечественной войны. Об их подвиге. Они отдали свои жизни ради спасения беззащитных детей и женщин и обеспечили успех нашим войскам, сражавшимся с немецко-фашистскими захватчиками в горах Кавказа. Это был единственный путь через хребет, по которому шли беженцы и раненые. Снайперы из немецкой дивизии «Эдельвейс» захватили важную позицию возле перевала. Лейтенант Артем предлагает командиру полка подняться наверх и подорвать шапку снега, чтобы лавина снега смела фашистов. Шесть альпинистов, среди них Ашот, который родился в этих горах, добрались до снежного плато, но их увидел вражеский самолет. Чтобы спасти Веру, погиб Ашот, но дорога была проложена.

Рейтинг на КиноПоиск:6.889[/field]
Рейтинг на IMDB:7.1/10[/field][/field]

Видео: 720x576, ( PAL 4:3), MPEG2 Video, 25,000 кадр/сек, ~ 7000 Кбит/сек
Аудио: Русский, 48,0 КГц, AC3, 2 канала(ов), ~192 Кбит/сек
Доп. информация: Релиз от компании "DVD Classic"

Полное имя: F:\Фильмы DVD\БЕЛЫЙ ВЗРЫВ DVD-5\VIDEO_TS\VTS_01_1.VOB
Формат: MPEG-PS
Размер файла: 1024 Мбайт
Продолжительность: 19 м.
Общий поток: 7317 Кбит/сек
Видео
Идентификатор: 224 (0xE0)
Формат: MPEG Video
Версия формата: Version 2
Профиль формата: Simple@Main
Параметр BVOP формата: Нет
Параметр матрицы формата: По умолчанию
Параметры GOP формата: M=1, N=15
Продолжительность: 19 м.
Вид битрейта: Постоянный
Битрейт: 7000 Кбит/сек
Ширина: 720 пикс.
Высота: 576 пикс.
Соотношение сторон: 4:3
Частота кадров: 25,000 кадр/сек
Стандарт вещания: PAL
Цветовое пространство: YUV
Подвыборка цветности: 4:2:0
Битовая глубина: 8 бит
Тип развёртки: Чересстрочная
Порядок развёртки: Верхнее поле первое
Метод сжатия: С потерями
Бит/(Пиксели*Кадры): 0.675
Размер потока: 977 Мбайт (95%)
Аудио
Идентификатор: 128 (0x80)
Формат: AC-3
Формат/Информация: Audio Coding 3
Расширение режима: CM (complete main)
Продолжительность: 19 м.
Вид битрейта: Постоянный
Битрейт: 192 Кбит/сек
Канал(ы): 2 канала(ов)
Расположение каналов: Front: L R
Частота: 48,0 КГц
Битовая глубина: 16 бит
Метод сжатия: С потерями
Размер потока: 26,9 Мбайт (3%)
Меню






















Поделиться:




реклама партнёра


Вернуться к началу
 Профиль Отправить личное сообщение  
 
   Похожие торренты   Автор   Торрент   Размер 
В этой теме нет новых непрочитанных сообщений. Таинственные исчезновения Сталина из его 2-ой ссылки ("Белый взрыв", "Сталин") Меняйлов [2014, военный, история, комедия, HDRip]

vairgin

2 | 3

1.38 ГБ

В этой теме нет новых непрочитанных сообщений. Уик-Энд / Weekend (Станислав Говорухин) [2014, драма, детектив, криминал, WEB-DL 720p]

Nickolas3435

374 | 18

2.95 ГБ

В этой теме нет новых непрочитанных сообщений. Конец прекрасной эпохи (Станислав Говорухин) [драма, комедия, 2015] WEB-DL 1080p [iTunes]

Dracon

1389 | 38

3.53 ГБ

В этой теме нет новых непрочитанных сообщений. Конец прекрасной эпохи (Станислав Говорухин) [драма, комедия, 2015] WEB-DLRip [iTunes]

Dracon

8727 | 326

1.46 ГБ

В этой теме нет новых непрочитанных сообщений. Конец прекрасной эпохи (Станислав Говорухин) [драма, комедия, 2015] WEB-DL 720p [iTunes]

Dracon

1908 | 54

2.91 ГБ

В этой теме нет новых непрочитанных сообщений. Белый призрак / White Ghost [боевик, приключения, военный, 1988] BDRemux 1080р, Mvo

salma3

22 | 10

20.8 ГБ

В этой теме нет новых непрочитанных сообщений. Взрыв / Blast [боевик, 1997] DVDRip, Mvo

salma3

12 | 2

1.46 ГБ


Начать новую тему Ответить на тему  [ 1 сообщение ] 




Для Мосгорсуда, Роскомнадзора и рекламодателей:: mosgorsud-torrent[собачка]yandex.ru