Торрент файл
скачать торрент магнет ссылка Добавлен: 08 янв 2012, 21:41
Размер: 3.76 ГБ
Сидеров: 0
Личеров: 7
Автор

СообщениеДобавлено: 08 янв 2012, 21:41 

Не в сети
Супермодератор
Аватара пользователя
Дата регистрации:
11 апр 2010, 18:10
Спасибо: 5801 / 7
Сообщения: 56779
Город насилия / Città violenta

Перевод: Профессиональный (многоголосый, закадровый)
Cубтитры: отсутствуют
Формат: DVD5, DVD Video, MPEG2, AC3
Страна: Франция, Италия
Режиссер: Серджо Соллима
Жанр: Триллер, драма, криминал
Продолжительность: 01:48:34
Год выпуска: 1970

В ролях: Чарльз Бронсон, Джилл Айрленд, Мишель Константен, Телли Савалас, Умберто Орсини, Рэй Саундерс, Бенжамин Лев, Питер Дэйн, Джордж Савалас, Берил Сальваторе

Описание: После ряда кровавых преступлений и непонятных подстав профессиональный «стрелок» Джефф начинает подозревать в злом умысле свою прекрасную подружку. Она прячется от Джеффа в Новом Орлеане, но тот берет ее след, который… выводит его на «крестного отца» мощной криминальной группировки. Босс однозначно дает Джеффу понять, что хочет видеть его в рядах своей организации, а когда тот отказывается — объявляет ему войну. Но и Джефф не собирается поднимать лапы кверху, и теперь в Городе Насилия каждый шаг похож на выстрел пули. а любовь подобна заряженному пистолету…

Рейтинг на КиноПоиск:6.667[/field]
Рейтинг MPAA :R[/field]
Рейтинг на IMDB:6.2/10[/field][/field]

Видео: 720x576, (PAL 4:3), MPEG2 Video, 25,000 кадр/сек, ~ 8500 Кбит/сек
Аудио: Русский, 48,0 КГц, AC3, 2 канала(ов), ~192 Кбит/сек [Профессиональный (многоголосый, закадровый)]


Полное имя: D:\Город насилия DVD-5\VIDEO_TS\VTS_01_1.VOB
Формат: MPEG-PS
Размер файла: 1024 Мбайт
Продолжительность: 29 м.
Общий поток: 4851 Кбит/сек
Видео
Идентификатор: 224 (0xE0)
Формат: MPEG Video
Версия формата: Version 2
Профиль формата: Main@Main
Параметр BVOP формата: Да
Параметр матрицы формата: По умолчанию
Параметры GOP формата: M=3, N=12
Продолжительность: 29 м.
Вид битрейта: Переменный
Битрейт: 4562 Кбит/сек
Номинальный битрейт: 8500 Кбит/сек
Ширина: 720 пикс.
Высота: 576 пикс.
Соотношение сторон: 4:3
Частота кадров: 25,000 кадр/сек
Стандарт вещания: PAL
Цветовое пространство: YUV
Подвыборка цветности: 4:2:0
Битовая глубина: 8 бит
Тип развёртки: Чересстрочная
Порядок развёртки: Верхнее поле первое
Метод сжатия: С потерями
Бит/(Пиксели*Кадры): 0.440
Размер потока: 963 Мбайт (94%)
Аудио
Идентификатор: 128 (0x80)
Формат: AC-3
Формат/Информация: Audio Coding 3
Расширение режима: CM (complete main)
Продолжительность: 29 м.
Вид битрейта: Постоянный
Битрейт: 192 Кбит/сек
Канал(ы): 2 канала(ов)
Расположение каналов: Front: L R
Частота: 48,0 КГц
Битовая глубина: 16 бит
Метод сжатия: С потерями
Задержка видео: 469 мс.
Размер потока: 40,5 Мбайт (4%)
Меню

























Поделиться:




реклама партнёра


Вернуться к началу
 Профиль Отправить личное сообщение  
 
   Похожие торренты   Автор   Торрент   Размер 
В этой теме нет новых непрочитанных сообщений. Город насилия / Violent City [Триллер, драма, криминал, 1970] BDRip 720p, Mvo

salma3

2 | 14

6.98 ГБ

В этой теме нет новых непрочитанных сообщений. День насилия / A Day of Violence [триллер, криминал, 2010] HDRip, Avo [Xixidok]

salma3

139 | 19

1.37 ГБ

В этой теме нет новых непрочитанных сообщений. Субурра / Suburra (Стефано Соллима) [Криминал, драма, 2015] WEBRip, dvo

Dracon

3404 | 689

2.05 ГБ

В этой теме нет новых непрочитанных сообщений. Cубурра / Suburra (Стефано Соллима) [Криминал, драма, 2015] WEBRip 1080p, dvo

Dracon

1261 | 109

2.78 ГБ

В этой теме нет новых непрочитанных сообщений. Анатомия насилия / Chaos [Ужасы, драма, криминал, 2005] SATRip, Dvo

salma3

47 | 7

690.25 МБ

В этой теме нет новых непрочитанных сообщений. Мост / The Bridge (USA) [02x01-12 из 13] (Гвинет Хердер-Пэйтон, Билл Джонсон, Серджо Мимика-Геззан) [2014, Триллер, драма, криминал, WEB-DLRip | LostFilm]

Nickolas3435

25 | 20

5.71 ГБ

В этой теме нет новых непрочитанных сообщений. Конец насилия / The end of violence [триллер, драма, 1997] HDRip, Mvo

salma3

15 | 4

1.36 ГБ


Начать новую тему Ответить на тему  [ 1 сообщение ] 




Для Мосгорсуда, Роскомнадзора и рекламодателей:: mosgorsud-torrent[собачка]yandex.ru