Торрент файл
скачать торрент магнет ссылка Добавлен: 08 янв 2012, 21:35
Размер: 3.65 ГБ
Сидеров: 0
Личеров: 6
Автор

СообщениеДобавлено: 08 янв 2012, 21:35 

Не в сети
Супермодератор
Аватара пользователя
Дата регистрации:
11 апр 2010, 18:10
Спасибо: 5801 / 7
Сообщения: 56779
Большое ограбление банка в Сент-луисе / The Great St. Louis Bank Robbery

Перевод: Профессиональный (многоголосый, закадровый)
Cубтитры:Испаские
Формат: DVD5, DVD Video, MPEG2, AC3
Страна: США
Режиссер: Чарльз Гуггенхейм
Жанр: Драма, криминал
Продолжительность: 01:28:47
Год выпуска: 1959
В ролях: Стив МакКуин, Крэхан Дентон, Дэвид Кларк, Джеймс Дюка, Молли МакКарти, Марта Гейбл,Бойд Уильямс, Фрэнк Новотны, Нелл Робертс

Описание: Очень хороший банк есть в Сент-Луисе. «Юго-Западный Банк». А чем уж он так хорош, спросите Вы? А тем, что его не грабили уже целых двадцать лет и полицейские, которые его охраняют, совсем потеряли нюх, стали толстыми и старыми, пистолет смогут вытащить чуть ли не через полчаса, да и то вряд ли…Вот так примерно рассуждают герои этого фильма, собравшиеся провернуть легкое на первый взгляд дельце и изъять наличность из Юго-Западного Сент-Луисского банка. Лучше всего это будет сделать в пятницу, день, когда в банк свозится огромная куча налички для выдачи зарплаты…Для грабежа нужен водитель, причем хороший, смелый водитель. И такой находится — он сын сестры одного из главарей банды, и только что вернулся из армии. Это его первое задание

Рейтинг на КиноПоиск:7.417[/field]
Рейтинг на IMDB:5.8/10[/field][/field]

Видео: 720x576, ( PAL 4:3), MPEG2 Video, 25,000 кадр/сек, ~ 4423 Кбит/сек
Аудио #1:Испанский, 48,0 КГц, AC3, 5 канала(ов), ~384 Кбит/сек [Оригинал]
Аудио #2:Английский, 48,0 КГц, AC3, 2 канала(ов), ~448 Кбит/сек
Аудио #3:Русский, 48,0 КГц, AC3, 2 канала(ов), ~192 Кбит/сек [Профессиональный (многоголосый, закадровый)][/field]

Доп. информация: Фильм найден в сети DC++.
К испанскому DVD-5 добавлена русская многоголосая закадровая дорожка от издания DVD - Магии.Звук синхронизировался по оригинальной дорожке Имеются испанские субтитры, меню с фильмографиями (всё на испанском), ролик Dolby Digital. Меню не изменялось.

Полное имя: D:\Большое ограбление банка в Сент-луисе DVD-5\VIDEO_TS\VTS_03_1.VOB
Формат: MPEG-PS
Размер файла: 1024 Мбайт
Продолжительность: 25 м.
Общий поток: 5557 Кбит/сек
Видео
Идентификатор: 224 (0xE0)
Формат: MPEG Video
Версия формата: Version 2
Профиль формата: Main@Main
Параметр BVOP формата: Да
Параметр матрицы формата: По умолчанию
Продолжительность: 25 м.
Вид битрейта: Переменный
Битрейт: 4423 Кбит/сек
Ширина: 720 пикс.
Высота: 576 пикс.
Соотношение сторон: 4:3
Частота кадров: 25,000 кадр/сек
Стандарт вещания: PAL
Цветовое пространство: YUV
Подвыборка цветности: 4:2:0
Битовая глубина: 8 бит
Тип развёртки: Чересстрочная
Порядок развёртки: Верхнее поле первое
Метод сжатия: С потерями
Бит/(Пиксели*Кадры): 0.427
Размер потока: 815 Мбайт (80%)
Аудио #1
Идентификатор: 128 (0x80)
Формат: AC-3
Формат/Информация: Audio Coding 3
Расширение режима: CM (complete main)
Продолжительность: 25 м.
Вид битрейта: Постоянный
Битрейт: 384 Кбит/сек
Канал(ы): 5 канала(ов)
Расположение каналов: Front: L C R, Side: L R
Частота: 48,0 КГц
Битовая глубина: 16 бит
Метод сжатия: С потерями
Задержка видео: -80 мс.
Размер потока: 70,7 Мбайт (7%)
Аудио #2
Идентификатор: 129 (0x81)
Формат: AC-3
Формат/Информация: Audio Coding 3
Расширение режима: CM (complete main)
Продолжительность: 25 м.
Вид битрейта: Постоянный
Битрейт: 448 Кбит/сек
Канал(ы): 2 канала(ов)
Расположение каналов: Front: L R
Частота: 48,0 КГц
Битовая глубина: 16 бит
Метод сжатия: С потерями
Задержка видео: -80 мс.
Размер потока: 82,5 Мбайт (8%)
Аудио #3
Идентификатор: 130 (0x82)
Формат: AC-3
Формат/Информация: Audio Coding 3
Расширение режима: CM (complete main)
Продолжительность: 25 м.
Вид битрейта: Постоянный
Битрейт: 192 Кбит/сек
Канал(ы): 2 канала(ов)
Расположение каналов: Front: L R
Частота: 48,0 КГц
Битовая глубина: 16 бит
Метод сжатия: С потерями
Задержка видео: -80 мс.
Размер потока: 35,4 Мбайт (3%)
Текст
Идентификатор: 32 (0x20)
Формат: RLE
Формат/Информация: Run-length encoding
Задержка видео: 1 с. 880 мс.
Меню





Исходные DVD-5 R2 (Испанский) и DVD-5 R5 (DVD-Magic) были разобраны на элементарные потоки PGC Demux.
DD Звук конвертировался в Wav при помощи Tranzcode.
Русская дорожка синхронизировалась по пикам с оригинальной от R2 в Adobe Audition, затем конвертировалась обратно в DD при помощи Sonic Audio Transcoder.
Обратная сборка в проект DVD-Video - в Muxman.
Замена оригинального PGC c фильмом на модифицированный с добавленной руской дорожкой - в DVD ReMake Pro.
Снятие скриншотов - DVD ReMake Pro, VirtualDub MPEG2, Adobe Photoshop, составление описания и формление - в Notepad.
За диск спасибо релизеру 4Al
























Поделиться:




реклама партнёра


Вернуться к началу
 Профиль Отправить личное сообщение  
 
   Похожие торренты   Автор   Торрент   Размер 
В этой теме нет новых непрочитанных сообщений. Великое ограбление поезда: История двух воров / The Great British Train Robbery: A Tale Of Two Thieves [Документальный, расследование, 2014] SatRip, Mvo

Dracon

6 | 2

968.82 МБ

В этой теме нет новых непрочитанных сообщений. Идеальное ограбление / Daylight Robbery [триллер, драма, криминал, 2008] DVDRip, Mvo

salma3

17 | 3

690.24 МБ

В этой теме нет новых непрочитанных сообщений. Вооружённое ограбление / Mains armees [драма, триллер, криминал, 2012] HDRip, Mvo [НТВ+]

salma3

32 | 2

1.46 ГБ

В этой теме нет новых непрочитанных сообщений. Ограбление по-американски / American Heist (Сарик Андреасян) [триллер, криминал, драма, 2014] WEB-DLRip, Avo

Dracon

134 | 3

745 МБ

В этой теме нет новых непрочитанных сообщений. Ограбление по-американски / American Heist (Сарик Андреасян) [триллер, криминал, драма, 2014] WEB-DLRip 720p, dub [Звук с TS]

Dracon

40 | 3

2.99 ГБ

В этой теме нет новых непрочитанных сообщений. Ограбление по-американски / American Heist (Сарик Андреасян) [триллер, криминал, драма, 2014] HDRip, dub [Чистый звук]

Dracon

365 | 16

1.37 ГБ

В этой теме нет новых непрочитанных сообщений. Ограбление по-американски / American Heist (Сарик Андреасян) [триллер, криминал, драма, 2014] BDRip 720p, dub [Чистый звук]

Dracon

22 | 2

4.97 ГБ


Начать новую тему Ответить на тему  [ 1 сообщение ] 




Для Мосгорсуда, Роскомнадзора и рекламодателей:: mosgorsud-torrent[собачка]yandex.ru