Торрент файл
скачать торрент магнет ссылка Добавлен: 08 янв 2012, 21:34
Размер: 4.36 ГБ
Сидеров: 8
Личеров: 7
Автор

СообщениеДобавлено: 08 янв 2012, 21:34 

Не в сети
Супермодератор
Аватара пользователя
Дата регистрации:
11 апр 2010, 18:10
Спасибо: 5915 / 7
Сообщения: 56776
Капитан Немо (3 серии из 3)

Перевод: Не требуется
Субтитры: отсутствуют
Формат: DVD5, DVD Video, MPEG2, AC3
Страна: СССР
Режиссер: Василий Левин
Жанр: Фантастика, фэнтези, боевик, приключения
Продолжительность: 01:12:59+01:07:02+01:04:41
Год выпуска: 1975

В ролях: Владислав Дворжецкий, Юрий Родионов, Владимир Талашко, Михаил Кононов, Владимир Басов, Марианна Вертинская, Н. Базанова, Виктор Демерташ, Николай Дупак, Эльвира Хомюк

Описание: Морское чудовище уничтожает военные корабли, и знаменитый профессор Аронакс отправляется в карательную экспедицию. После неудачного сражения с чудовищем корабль идет ко дну, а профессор, его слуга Консель и китобой Нед Лэнд попадают на подводный корабль и совершают удивительное путешествие под водой.

Рейтинг на КиноПоиск:7.392[/field]

Видео: 720x576, (PAL 4:3), MPEG2 Video, 25,000 кадр/сек, ~ 2844 Кбит/сек
Аудио: Русский, 48,0 КГц, AC3, 2 канала(ов), ~192 Кбит/сек

Доп. информация: По произведениям Ж.Верна.Лицензионное издание "МАГНАТ"

Полное имя: I:\Фильмы DVD\Наши\Капитан Немо DVD-5\VIDEO_TS\VTS_02_1.VOB
Формат: MPEG-PS
Размер файла: 1024 Мбайт
Продолжительность: 46 м.
Общий поток: 3098 Кбит/сек
Видео
Идентификатор: 224 (0xE0)
Формат: MPEG Video
Версия формата: Version 2
Профиль формата: Main@Main
Параметр BVOP формата: Да
Параметр матрицы формата: По умолчанию
Параметры GOP формата: M=3, N=12
Продолжительность: 46 м.
Вид битрейта: Переменный
Битрейт: 2844 Кбит/сек
Ширина: 720 пикс.
Высота: 576 пикс.
Соотношение сторон: 4:3
Частота кадров: 25,000 кадр/сек
Стандарт вещания: PAL
Цветовое пространство: YUV
Подвыборка цветности: 4:2:0
Битовая глубина: 8 бит
Тип развёртки: Чересстрочная
Порядок развёртки: Верхнее поле первое
Метод сжатия: С потерями
Бит/(Пиксели*Кадры): 0.274
Размер потока: 940 Мбайт (92%)
Аудио
Идентификатор: 128 (0x80)
Формат: AC-3
Формат/Информация: Audio Coding 3
Расширение режима: CM (complete main)
Продолжительность: 46 м.
Вид битрейта: Постоянный
Битрейт: 192 Кбит/сек
Канал(ы): 2 канала(ов)
Расположение каналов: Front: L R
Частота: 48,0 КГц
Битовая глубина: 16 бит
Метод сжатия: С потерями
Размер потока: 63,5 Мбайт (6%)
Меню






























Поделиться:




реклама партнёра


Вернуться к началу
 Профиль Отправить личное сообщение  
 
   Похожие торренты   Автор   Торрент   Размер 
В этой теме нет новых непрочитанных сообщений. Стрела / Arrow / 4 сезон 1-23 серии из 23 [фантастика, фэнтези, боевик, драма, приключения, 2015-2016] WEB-DLRip, Mvo [BaibaKo]

salma3

72 | 198

12.92 ГБ

В этой теме нет новых непрочитанных сообщений. Люди Икс: Дни минувшего будущего / X-Men: Days of Future Past (Брайан Сингер) [фантастика, фэнтези, боевик, приключения, 2014] DVD5, Dub+Sub [сжатый]

Dracon

114 | 11

4.34 ГБ

В этой теме нет новых непрочитанных сообщений. Флэш / The Flash / 2 сезон 1-23 серии из 23 (Дэвид Наттер) [2015, фантастика, фэнтези, боевик, драма, приключения, WEB-DLRip | NewStudio]

Dracon

124 | 162

12.28 ГБ

В этой теме нет новых непрочитанных сообщений. Маленький Немо: Приключения в стране снов / Little Nemo: Adventures in Slumberland [Мультфильм, приключения, 1989] DVDRip, Avo

salma3

29 | 4

1.38 ГБ

В этой теме нет новых непрочитанных сообщений. Небесный капитан и мир будущего / Sky Captain and the World of Tomorrow [фантастика, боевик, триллер, 2004] BDRip 720p, Dub+Sub

salma3

40 | 12

3.99 ГБ

В этой теме нет новых непрочитанных сообщений. Дом / Home (Тим Джонсон) [мультфильм, фантастика, фэнтези, комедия, приключения, семейный, 2015] DVD5, Dub+Sub [Лицензия]

Dracon

3 | 0

4.36 ГБ

В этой теме нет новых непрочитанных сообщений. Последний охотник на ведьм / The Last Witch Hunter [фэнтези, боевик, приключения, 2015] DVD5, Dub+Sub

salma3

130 | 42

4.38 ГБ


Начать новую тему Ответить на тему  [ 1 сообщение ] 




Для Мосгорсуда, Роскомнадзора и рекламодателей:: mosgorsud-torrent[собачка]yandex.ru