Торрент файл
скачать торрент магнет ссылка Добавлен: 08 янв 2012, 21:34
Размер: 4.2 ГБ
Сидеров: 7
Личеров: 5
Автор

СообщениеДобавлено: 08 янв 2012, 21:34 

Не в сети
Супермодератор
Аватара пользователя
Дата регистрации:
11 апр 2010, 18:10
Спасибо: 5801 / 7
Сообщения: 56779
Вальсирующие / Les valseuses

Перевод: Профессиональный (многоголосый, закадровый)
Cубтитры: отсутствуют
Формат: DVD5, DVD Video, MPEG2, AC3
Страна: Франция
Режиссер: Бертран Блие
Жанр: Драма, комедия, криминал
Продолжительность: 01:53:31
Год выпуска: 1974
В ролях: Жерар Депардье, Патрик Девэр, Миу-Миу, Жанна Моро, Брижит Фоссе, Кристиан Алер, Мишель Пейрелон, Жерар Букарон, Жак Шайё, Ева Дамьен

Описание: Двое парней изо всех сил корчат из себя крутых. Жизнь без проблем. Нужны деньги — грабеж. Лень ходить пешком — угон. Женщины -. .. А вот с женщинами несколько сложнее.

Рейтинг на КиноПоиск:7.859[/field]
Рейтинг MPAA:R[/field]
Рейтинг на IMDB:7.3/10[/field][/field]

Видео: 720x576, ( PAL 16:9), MPEG2 Video, 25,000 кадр/сек, ~ 7000 Кбит/сек
Аудио: Русский, 48,0 КГц, AC3, 2 канала(ов), ~192 Кбит/сек [Профессиональный (многоголосый, закадровый)]

Полное имя: К:\Вальсирующие\VIDEO_TS\VTS_01_1.VOB
Формат: MPEG-PS
Размер файла: 1024 Мбайт
Продолжительность: 27 м.
Общий поток: 5124 Кбит/сек
Видео
Идентификатор: 224 (0xE0)
Формат: MPEG Video
Версия формата: Version 2
Профиль формата: Main@Main
Параметр BVOP формата: Да
Параметр матрицы формата: По умолчанию
Продолжительность: 27 м.
Вид битрейта: Переменный
Битрейт: 4830 Кбит/сек
Номинальный битрейт: 7000 Кбит/сек
Ширина: 720 пикс.
Высота: 576 пикс.
Соотношение сторон: 16:9
Частота кадров: 25,000 кадр/сек
Стандарт вещания: PAL
Цветовое пространство: YUV
Подвыборка цветности: 4:2:0
Битовая глубина: 8 бит
Тип развёртки: Чересстрочная
Порядок развёртки: Верхнее поле первое
Метод сжатия: С потерями
Бит/(Пиксели*Кадры): 0.466
Размер потока: 965 Мбайт (94%)
Аудио
Идентификатор: 128 (0x80)
Формат: AC-3
Формат/Информация: Audio Coding 3
Расширение режима: CM (complete main)
Продолжительность: 27 м.
Вид битрейта: Постоянный
Битрейт: 192 Кбит/сек
Канал(ы): 2 канала(ов)
Расположение каналов: Front: L R
Частота: 48,0 КГц
Битовая глубина: 16 бит
Метод сжатия: С потерями
Размер потока: 38,4 Мбайт (4%)
Меню
























Поделиться:




реклама партнёра


Вернуться к началу
 Профиль Отправить личное сообщение  
 
   Похожие торренты   Автор   Торрент   Размер 
В этой теме нет новых непрочитанных сообщений. Вечернее платье / Tenue de soire (Бертран Блие / Bertrand Blier) [1986г., драма, комедия, криминал, DVDRip] MVO

Alfredovich

7 | 2

1.38 ГБ

В этой теме нет новых непрочитанных сообщений. Громила и скороход / Thunderbolt and Lightfoot [Драма, комедия, криминал, 1974] HDRip, Mvo

salma3

63 | 5

1.46 ГБ

В этой теме нет новых непрочитанных сообщений. Шугарлендский Экспресс / The Sugarland Express [драма, комедия, криминал, приключения, 1974] WEB-DLRip, Mvo

salma3

1 | 2

1.47 ГБ

В этой теме нет новых непрочитанных сообщений. Шугарлендский экспресс / The Sugarland Express [драма, комедия, криминал, приключения, 1974] BDRip-AVC, Mvo

salma3

15 | 2

1.45 ГБ

В этой теме нет новых непрочитанных сообщений. Громила и скороход / Thunderbolt and Lightfoot [Драма, комедия, криминал, 1974] BDRip 720p, Mvo+Dvo+Sub

salma3

23 | 2

7.03 ГБ

В этой теме нет новых непрочитанных сообщений. Шугарлендский экспресс / The Sugarland Express [драма, комедия, криминал, приключения, 1974] BDRip 1080p, Mvo+Sub

salma3

4 | 4

16.89 ГБ

В этой теме нет новых непрочитанных сообщений. Шугарлендский экспресс / The Sugarland express [драма, комедия, криминал, приключения, 1974] BDRip 720p, Mvo+Sub

salma3

23 | 12

4.9 ГБ


Начать новую тему Ответить на тему  [ 1 сообщение ] 




Для Мосгорсуда, Роскомнадзора и рекламодателей:: mosgorsud-torrent[собачка]yandex.ru