Торрент файл
скачать торрент магнет ссылка Добавлен: 08 янв 2012, 21:33
Размер: 4.35 ГБ
Сидеров: 0
Личеров: 6
Автор

СообщениеДобавлено: 08 янв 2012, 21:33 

Не в сети
Супермодератор
Аватара пользователя
Дата регистрации:
11 апр 2010, 18:10
Спасибо: 5801 / 7
Сообщения: 56779
Клуб шпионов / The Secret Agent Club

Перевод: Профессиональный (многоголосый, закадровый)
Cубтитры: отсутствуют
Формат: DVD5, DVD Video, MPEG2, AC3
Страна: США
Режиссер: Джон Марловски
Жанр: Боевик, комедия, семейный
Продолжительность: 01:30:43
Год выпуска: 1996

В ролях: Халк Хоган, Мэттью МакКерли, Лесли-Энн Даун, Морис Вудс, Дэнни МакКью, Эшли Пауэр, Джимми Пэм, Ричард Молл, Лаймен Уорд, Бэрри Боствик

Описание: Мир в опасности! Сверхсекретное оружие — лазерная пушка, созданное в тайных лабораториях выставлено на продажу. Тайный агент Рэй Чейз, в жизни обыкновенный владелец магазина игрушек, выкрал пушку у террористов и, запутав следы, спрятал ее у себя в магазине.Вооруженные до зубов бандиты выследили Чейза и ворвались в его дом. Они не знали, что сын Рэя — почетный член «Клуба шпионов», а его любимая книга — «Как обезвредить террориста голыми руками»…

Рейтинг на КиноПоиск:5.413[/field]
Рейтинг на IMDB:2.9/10[/field][/field]

Видео: 720x480, (NTSC 4:3), MPEG2 Video, 29,970 кадр/сек, ~ 8000 Кбит/сек
Аудио #1:Русский, 48,0 КГц, AC3, 6 канала(ов), ~448 Кбит/сек [Профессиональный (многоголосый,закадровый)]
Аудио #2:Русский, 48,0 КГц, AC3, 2 канала(ов), ~192 Кбит/сек [Профессиональный (двухголосый,закадровый)]
Аудио #2:Английский, 48,0 КГц, AC3, 6 канала(ов), ~384 Кбит/сек [Оригинал][/field]

Полное имя: H:\Фильмы DVD\Клуб шпионов DVD-5\VIDEO_TS\VTS_02_1.VOB
Формат: MPEG-PS
Размер файла: 1024 Мбайт
Продолжительность: 20 м.
Общий поток: 6836 Кбит/сек
Видео
Идентификатор: 224 (0xE0)
Формат: MPEG Video
Версия формата: Version 2
Профиль формата: Main@Main
Параметр BVOP формата: Да
Параметр матрицы формата: По умолчанию
Параметры GOP формата: M=3, N=6
Продолжительность: 20 м.
Вид битрейта: Переменный
Битрейт: 5676 Кбит/сек
Номинальный битрейт: 8000 Кбит/сек
Ширина: 720 пикс.
Высота: 480 пикс.
Соотношение сторон: 4:3
Частота кадров: 29,970 кадр/сек
Стандарт вещания: NTSC
Цветовое пространство: YUV
Подвыборка цветности: 4:2:0
Битовая глубина: 8 бит
Тип развёртки: Чересстрочная
Порядок развёртки: Нижнее поле первое
Метод сжатия: С потерями
Бит/(Пиксели*Кадры): 0.548
Размер потока: 850 Мбайт (83%)
Аудио #1
Идентификатор: 128 (0x80)
Формат: AC-3
Формат/Информация: Audio Coding 3
Расширение режима: CM (complete main)
Продолжительность: 20 м.
Вид битрейта: Постоянный
Битрейт: 448 Кбит/сек
Канал(ы): 6 канала(ов)
Расположение каналов: Front: L C R, Side: L R, LFE
Частота: 48,0 КГц
Битовая глубина: 16 бит
Метод сжатия: С потерями
Размер потока: 67,1 Мбайт (7%)
Аудио #2
Идентификатор: 129 (0x81)
Формат: AC-3
Формат/Информация: Audio Coding 3
Расширение режима: CM (complete main)
Продолжительность: 20 м.
Вид битрейта: Постоянный
Битрейт: 192 Кбит/сек
Канал(ы): 2 канала(ов)
Расположение каналов: Front: L R
Частота: 48,0 КГц
Битовая глубина: 16 бит
Метод сжатия: С потерями
Размер потока: 28,8 Мбайт (3%)
Аудио #3
Идентификатор: 130 (0x82)
Формат: AC-3
Формат/Информация: Audio Coding 3
Расширение режима: CM (complete main)
Продолжительность: 20 м.
Вид битрейта: Постоянный
Битрейт: 384 Кбит/сек
Канал(ы): 6 канала(ов)
Расположение каналов: Front: L C R, Side: L R, LFE
Частота: 48,0 КГц
Битовая глубина: 16 бит
Метод сжатия: С потерями
Размер потока: 57,5 Мбайт (6%)
Меню




























Поделиться:




реклама партнёра


Вернуться к началу
 Профиль Отправить личное сообщение  
 
   Похожие торренты   Автор   Торрент   Размер 
В этой теме нет новых непрочитанных сообщений. Клуб первых жен / The First Wives Club [мелодрама, комедия, 1996] BDRip, Mvo

salma3

35 | 4

1.45 ГБ

В этой теме нет новых непрочитанных сообщений. Зип и Зап. Клуб стеклянных шариков  / Zipi y Zape y el club de la canica (Оскар Сантос Гомес) [Комедия, Приключения, Семейный, 2013] HDRip, dub [чистый звук]

Dracon

4 | 3

1.46 ГБ

В этой теме нет новых непрочитанных сообщений. Зип и Зап. Клуб стеклянных шариков  / Zipi y Zape y el club de la canica (Оскар Сантос Гомес) [Комедия, Приключения, Семейный, 2013] BDRip 720p, dub [чистый звук]

Dracon

183 | 6

4.56 ГБ

В этой теме нет новых непрочитанных сообщений. Клуб домашних детективов / Clubhouse Detectives [детектив, приключения, семейный, 1996] DVDRip, Avo

salma3

9 | 2

1.48 ГБ

В этой теме нет новых непрочитанных сообщений. Далласский клуб покупателей / Dallas Buyers Club [Драма, биография, 2013] DVD5, Dub+Sub [лицензия]

Dracon

25 | 3

4.37 ГБ

В этой теме нет новых непрочитанных сообщений. Ночь в музее: Секрет гробницы / Night at the Museum: Secret of the Tomb (Шон Леви) [Фэнтези, комедия, приключения, семейный, 2015] DVD5, Dub+Sub [iTunes]

Dracon

56 | 4

4.33 ГБ

В этой теме нет новых непрочитанных сообщений. Подарок на Рождество / Jingle All The Way [Детский, комедия, семейный, 1996] DVD5, Mvo [Лицензия]

salma3

21 | 7

4.24 ГБ


Начать новую тему Ответить на тему  [ 1 сообщение ] 




Для Мосгорсуда, Роскомнадзора и рекламодателей:: mosgorsud-torrent[собачка]yandex.ru