Торрент файл
скачать торрент магнет ссылка Добавлен: 08 янв 2012, 21:33
Размер: 4.35 ГБ
Сидеров: 4
Личеров: 6
Автор

СообщениеДобавлено: 08 янв 2012, 21:33 

Не в сети
Супермодератор
Аватара пользователя
Дата регистрации:
11 апр 2010, 18:10
Спасибо: 5802 / 7
Сообщения: 56779
Женатый холостяк [Ремастеринг]


Перевод: Не требуется
Субтитры:Отсутствуют
Формат: DVD5, DVD Video, MPEG2, AC3
Страна: СССР
Режиссер: Владимир Роговой
Жанр: комедия, музыкальный фильм
Продолжительность: 01:24:00
Год выпуска: 1982

В ролях: Юрий Григорьев (II), Лариса Удовиченко, Ирина Мурзаева, Баадур Цуладзе, Вера Васильева, Александр Пшеничнов, Михаил Пуговкин, Надежда Румянцева, Роман Филиппов......

Описание: В поезде молодая женщина Тамара призналась новому знакомому, что развелась с мужем и не хочет пока расстраивать по этому поводу родителей. Далее события развиваются таким образом, что ей и не пришлось объяснять старикам отсутствие зятя. Случайный знакомый не прочь сыграть роль мужа и заодно отца и зятя. Все роли Сергею удаются на славу. Он так вжился в предлагаемые обстоятельства, что готов подыгрывать Тамаре всю жизнь.....

Рейтинг на IMDB: 5.8/10
Рейтинг на Кинопоиск.RU: 7.919

Видео: 720x576 (PAL 4:3), 25,000 fps, MPEG 2 Video, ~9000 kbps avg
Аудио:Русский: 48 kHz, AC3, 2 ch, ~224 kbps avg

Семпл

Дополнительно :
    Meню статичное, озвученное, на русском языке, с навигацией по эпизодам
  • Смотрите на DVD



Формат: MPEG-PS
Размер файла: 1024 Мбайт
Продолжительность: 19 м.
Режим общего битрейта: Переменный
Общий поток: 7348 Кбит/сек

Видео
Идентификатор: 224 (0xE0)
Формат: MPEG Video
Версия формата: Version 2
Профиль формата: Main@Main
Параметр BVOP формата: Да
Параметр матрицы формата: Выборочная
Продолжительность: 19 м.
Вид битрейта: Переменный
Битрейт: 6978 Кбит/сек
Максимальный битрейт: 9000 Кбит/сек
Ширина: 720 пикселей
Высота: 576 пикселей
Соотношение сторон: 4:3
Частота кадров: 25,000 кадров/сек
Стандарт вещания: PAL
Цветовое пространство: YUV
Субдискретизация насыщенности: 4:2:0
Битовая глубина: 8 бит
Тип развёртки: Чересстрочная
Порядок развёртки: Верхнее поле первое
Метод сжатия: С потерями
Бит/(Пиксели*Кадры): 0.673
Размер потока: 972 Мбайт (95%)

Аудио
Идентификатор: 189 (0xBD)-128 (0x80)
Формат: AC-3
Формат/Информация: Audio Coding 3
Расширение режима: CM (complete main)
Режим смешивания: DVD-Video
Продолжительность: 19 м.
Вид битрейта: Постоянный
Битрейт: 224 Кбит/сек
Каналы: 2 канала
Расположение каналов: Front: L R
Частота: 48,0 КГц
Битовая глубина: 16 бит
Метод сжатия: С потерями
Размер потока: 31,2 Мбайт (3%)

Меню
























Поделиться:




реклама партнёра


Вернуться к началу
 Профиль Отправить личное сообщение  
 
   Похожие торренты   Автор   Торрент   Размер 
В этой теме нет новых непрочитанных сообщений. Карнавал по-нашему [1-2 из 2] [Комедия, музыкальный фильм, 2013] HDTVRip

iopuk60

0 | 2

1.08 ГБ

В этой теме нет новых непрочитанных сообщений. Жидкое небо / Liquid Sky [фантастика, комедия, 1982] DVD5, Avo

salma3

0 | 2

4.36 ГБ

В этой теме нет новых непрочитанных сообщений. Ну погоди! [01-25 из 25] (Вячеслав Котёночкин, Юрий Бутырин, Владимир Тарасов...) [1969-2006, мультфильм, комедия, семейный, приключения, DVD5]

Nickolas3435

696 | 58

4.36 ГБ

В этой теме нет новых непрочитанных сообщений. Экстро / Xtro [Ужасы, фантастика, мистика, 1982] DVD5, 3Avo

salma3

0 | 2

4.29 ГБ

В этой теме нет новых непрочитанных сообщений. Три богатыря [Музыкальный, комедия, фантазия, 2013] SATRip

Ανδρέας

В этой теме нет новых непрочитанных сообщений. Бездельник / Slacker [комедия, драма, 1982] BDRip, Avo

salma3

20 | 9

1.45 ГБ

В этой теме нет новых непрочитанных сообщений. Бездельник / Slacker [комедия, драма, 1982] BDRip-AVC, Avo

salma3

42 | 2

1.45 ГБ


Начать новую тему Ответить на тему  [ 1 сообщение ] 




Для Мосгорсуда, Роскомнадзора и рекламодателей:: mosgorsud-torrent[собачка]yandex.ru