Торрент файл
скачать торрент магнет ссылка Добавлен: 08 янв 2012, 21:33
Размер: 4.16 ГБ
Сидеров: 0
Личеров: 11
Автор

СообщениеДобавлено: 08 янв 2012, 21:33 

Не в сети
Супермодератор
Аватара пользователя
Дата регистрации:
11 апр 2010, 18:10
Спасибо: 5801 / 7
Сообщения: 56779
Владетель Баллантрэ / The Master of Ballantrae

Перевод: Профессиональный (многоголосый, закадровый)
Cубтитры: отсутствуют
Формат: DVD5, DVD Video, MPEG2, AC3
Страна: США
Режиссер: Уильям Кили
Жанр: Приключения
Продолжительность: 01:28:47
Год выпуска: 1953

В ролях: Эррол Флинн, Роджер Ливси, Энтони Стил, Беатрис Кэмпбелл, Ивонн Фюрно, Феликс Эйлмер, Мервин Джонс, Чарльз Голднер, Ральф Труман, Френсис Де Фолфф

Описание: Прекрасные женщины ходят в шикарных платьях, блистая драгоценностями и заставляя мужчин добиваться их внимания и улыбки, а кавалеры храбры и великодушны, настолько, что честь их намного превышает ценность самой жизни.

Рейтинг на КиноПоиск:6.500[/field]
Рейтинг на IMDB:6.5/10[/field][/field]

Видео: 720x576, ( PAL 4:3), MPEG2 Video, 25,000 кадр/сек, ~ 9000 Кбит/сек
Аудио: Русский, 48,0 КГц, AC3, 2 канала(ов), ~192 Кбит/сек [Профессиональный (многоголосый закадровый)]

Доп. информация: Роман Роберта Льюиса Стивенсона (1850-1894) "Владетель Баллантрэ" считается вершиной творчества писателя. В основу "романа-трагедии" легла история шотландской семьи, где соединились две темы, глубоко занимавшие Стивенсона, - границы добра и зла в человеческой природе.


Полное имя: I:\Фильмы DVD\Ихние\Владетель Балантрэ DVD-5\VIDEO_TS\VTS_02_1.VOB
Формат: MPEG-PS
Размер файла: 1024 Мбайт
Продолжительность: 21 м.
Общий поток: 6629 Кбит/сек
Библиотека кодирования: (C) 1997-2002 Womble Multimedia, Inc. / MPEG-VCR V3.12 (06/2002) / Jun 21 2002
Видео
Идентификатор: 224 (0xE0)
Формат: MPEG Video
Версия формата: Version 2
Профиль формата: Main@Main
Параметр BVOP формата: Да
Параметр матрицы формата: По умолчанию
Параметры GOP формата: M=3, N=12
Продолжительность: 21 м.
Вид битрейта: Переменный
Битрейт: 6305 Кбит/сек
Номинальный битрейт: 9000 Кбит/сек
Ширина: 720 пикс.
Высота: 576 пикс.
Соотношение сторон: 4:3
Частота кадров: 25,000 кадр/сек
Стандарт вещания: PAL
Цветовое пространство: YUV
Подвыборка цветности: 4:2:0
Битовая глубина: 8 бит
Тип развёртки: Чересстрочная
Порядок развёртки: Верхнее поле первое
Метод сжатия: С потерями
Бит/(Пиксели*Кадры): 0.608
Размер потока: 974 Мбайт (95%)
Библиотека кодирования: (C) 1997-2002 Womble Multimedia, Inc. / MPEG-VCR V3.12 (06/2002) / Jun 21 2002
Аудио
Идентификатор: 128 (0x80)
Формат: AC-3
Формат/Информация: Audio Coding 3
Расширение режима: CM (complete main)
Продолжительность: 21 м.
Вид битрейта: Постоянный
Битрейт: 192 Кбит/сек
Канал(ы): 2 канала(ов)
Расположение каналов: Front: L R
Частота: 48,0 КГц
Битовая глубина: 16 бит
Метод сжатия: С потерями
Задержка видео: 880 мс.
Размер потока: 29,6 Мбайт (3%)
Меню


























Поделиться:




реклама партнёра


Вернуться к началу
 Профиль Отправить личное сообщение  
 
   Похожие торренты   Автор   Торрент   Размер 
В этой теме нет новых непрочитанных сообщений. Если бы взгляды могли убивать / If Looks Could Kill (Уильям Дир / William Dear) [1991г., боевик, приключения, комедия, DVDRip] avo+MVO

Alfredovich

5 | 6

1.45 ГБ

В этой теме нет новых непрочитанных сообщений. Белка и Стрелка: Лунные приключения [мультфильм, комедия, приключения, семейный, 2013] DVD5 [Лицензия]

Dracon

31 | 7

4.34 ГБ

В этой теме нет новых непрочитанных сообщений. Свадьба с приданым (Т.Лукашевич, Б.Равенских) [1953 г., Мюзикл, комедия, DVDRip]

Шкипер

33 | 4

751.02 МБ

В этой теме нет новых непрочитанных сообщений. Master Of Colors [Arcade, 2014] [Лицензия]

Tobus

1 | 2

13.4 МБ

В этой теме нет новых непрочитанных сообщений. Master Ninja [Arcade, 2011] [Лицензия]

Tobus

3 | 2

9.96 МБ

В этой теме нет новых непрочитанных сообщений. Ice Cream Master [Arcade, 2014] [Лицензия]

Tobus

2 | 2

24.57 МБ

В этой теме нет новых непрочитанных сообщений. Master - The Witchhunt [2013, Death, Thrash Metal, MP3]

PriZraK

0 | 2

118.28 МБ


Начать новую тему Ответить на тему  [ 1 сообщение ] 




Для Мосгорсуда, Роскомнадзора и рекламодателей:: mosgorsud-torrent[собачка]yandex.ru