Торрент файл
скачать торрент магнет ссылка Добавлен: 08 янв 2012, 21:33
Размер: 3.68 ГБ
Сидеров: 0
Личеров: 12
Автор

СообщениеДобавлено: 08 янв 2012, 21:33 

Не в сети
Супермодератор
Аватара пользователя
Дата регистрации:
11 апр 2010, 18:10
Спасибо: 5801 / 7
Сообщения: 56779
Война Мерфи / Murphy's War

Перевод: Профессиональный (многоголосый, закадровый)
Cубтитры: отсутствуют
Формат: DVD5, DVD Video, MPEG2, AC3
Страна: Великобритания
Режиссер: Питер Йетс
Жанр: Драма, военный
Продолжительность: 01:46:27
Год выпуска: 1970

В ролях: Питер О’Тул, Шан Филлипс, Филипп Нуаре, Хорст Янсон, Джон Хэллам,Джордж Рубисек

Описание: Хорошо поставленный, захватывающий боевик о войне, в котором наряду с батальными сценами дается психологический портрет английского моряка, который один остался в живых после того, как его судно оказалось потоплено немцами. Опираясь на помощь местного населения, после восстановления здоровья, он, одержимый местью, решает одиин напасть на немецкую армию, несмотряч на то, что война уже закончилась…

Рейтинг на КиноПоиск:7.281[/field]
Рейтинг MPAA:PG-13[/field]
Рейтинг на IMDB:6.8/10[/field][/field]

Видео: 720x576, ( PAL 4:3), MPEG2 Video, 25,000 кадр/сек, ~ 8500 Кбит/сек
Аудио: Русский, 48,0 КГц, AC3, 2 канала(ов), ~192 Кбит/сек [Профессиональный (многоголосый, закадровый)]


Полное имя: H:\Фильмы DVD\Война Мерфи DVD-5\VIDEO_TS\VTS_02_1.VOB
Формат: MPEG-PS
Размер файла: 1024 Мбайт
Продолжительность: 29 м.
Общий поток: 4848 Кбит/сек
Библиотека кодирования: (C) 1997-2002 Womble Multimedia, Inc. / MPEG-VCR V3.12 (06/2002) / Jun 21 2002
Видео
Идентификатор: 224 (0xE0)
Формат: MPEG Video
Версия формата: Version 2
Профиль формата: Main@Main
Параметр BVOP формата: Да
Параметр матрицы формата: По умолчанию
Параметры GOP формата: M=3, N=12
Продолжительность: 29 м.
Вид битрейта: Переменный
Битрейт: 4559 Кбит/сек
Номинальный битрейт: 8500 Кбит/сек
Ширина: 720 пикс.
Высота: 576 пикс.
Соотношение сторон: 4:3
Частота кадров: 25,000 кадр/сек
Стандарт вещания: PAL
Цветовое пространство: YUV
Подвыборка цветности: 4:2:0
Битовая глубина: 8 бит
Тип развёртки: Чересстрочная
Порядок развёртки: Верхнее поле первое
Метод сжатия: С потерями
Бит/(Пиксели*Кадры): 0.440
Размер потока: 963 Мбайт (94%)
Библиотека кодирования: (C) 1997-2002 Womble Multimedia, Inc. / MPEG-VCR V3.12 (06/2002) / Jun 21 2002
Аудио
Идентификатор: 128 (0x80)
Формат: AC-3
Формат/Информация: Audio Coding 3
Расширение режима: CM (complete main)
Продолжительность: 29 м.
Вид битрейта: Постоянный
Битрейт: 192 Кбит/сек
Канал(ы): 2 канала(ов)
Расположение каналов: Front: L R
Частота: 48,0 КГц
Битовая глубина: 16 бит
Метод сжатия: С потерями
Задержка видео: 400 мс.
Размер потока: 40,5 Мбайт (4%)
Меню






























Поделиться:




реклама партнёра


Вернуться к началу
 Профиль Отправить личное сообщение  
 
   Похожие торренты   Автор   Торрент   Размер 
В этой теме нет новых непрочитанных сообщений. С нами Бог / Gott Mit Uns [драма, военный, 1970] DVDRip, Avo

salma3

2 | 5

1.46 ГБ

В этой теме нет новых непрочитанных сообщений. Побег из лагеря МакКензи / The McKenzie Break [Драма, военный, 1970] DVDRip, Dvo

salma3

20 | 2

1.37 ГБ

В этой теме нет новых непрочитанных сообщений. Маленький большой человек / Little Big Man [драма, приключения, вестерн, военный, история, 1970] BDRip 1080p, Mvo+Avo+Sub

salma3

17 | 1

7.01 ГБ

В этой теме нет новых непрочитанных сообщений. Четвёртая война / The Fourth War [Триллер, драма, военный, 1990] BDRip 720p, Mvo

salma3

0 | 0

5.54 ГБ

В этой теме нет новых непрочитанных сообщений. Война обычного человека / Everyman's War [Драма, военный, биография, 2009] BDRip 720p, Mvo+Sub

salma3

18 | 5

5.77 ГБ

В этой теме нет новых непрочитанных сообщений. Война и мир / War and Peace [01х01-06 из 06] (Том Харпер) [2016, Драма, мелодрама, военный, история, HDTVRip | BaibaKo]

Dracon

70 | 28

5.02 ГБ

В этой теме нет новых непрочитанных сообщений. Война и мир / War and Peace [01х01-06 из 06] (Том Харпер) [2016, Драма, мелодрама, военный, история, WEB-DL 1080p | Вaibako]

Dracon

28 | 5

18.72 ГБ


Начать новую тему Ответить на тему  [ 1 сообщение ] 




Для Мосгорсуда, Роскомнадзора и рекламодателей:: mosgorsud-torrent[собачка]yandex.ru