Торрент файл
скачать торрент магнет ссылка Добавлен: 08 янв 2012, 21:33
Размер: 4.28 ГБ
Сидеров: 4
Личеров: 5
Автор

СообщениеДобавлено: 08 янв 2012, 21:33 

Не в сети
Супермодератор
Аватара пользователя
Дата регистрации:
11 апр 2010, 18:10
Спасибо: 5960 / 7
Сообщения: 56765
Аферисты: Дик и Джейн развлекаются / Fun with Dick and Jane


Перевод: Профессиональный (полное дублирование)
Cубтитры:отсутствуют
Формат: DVD5, DVD Video, MPEG2, AC3
Страна: США
Режиссер: Дин Парисот
Жанр: Комедия
Продолжительность: 01:26:40
Год выпуска: 2005

В ролях: В ролях:Джим Кэрри, Теа Леони, Глория Гараюа, Ричард Берджи, Энджи Хармон, Ричард Дженкинс, Тимм Шарп, Джон Майкл Хиггинс, Карлос Джэкотт, Стэйси Трэвис, Джейкоб Дэвич, Крис Эллис, Алек Болдуин

Роли дублировали:Олег Куликович,Анна Геллер,Сергей Паршин,Валерий Соловьев,Вадим Яковлев

Описание: Дик Харпер и его молодая жена Джейн привыкли жить красиво. Но в тот момент, когда они затевают строительство бассейна, Дика неожиданно увольняют, оставив его с непогашенной задолжностью за дом в $70 тыс.
Понимая, что долго скрывать от соседей бедственность своего положения им не удастся, парочка начинает промышлять мелким грабежом, постепенно входя во вкус.


Рейтинг на КиноПоиск:7.064[/field]
Рейтинг МРАА:PG-13[/field]
Рейтинг на IMDB:6.0/10[/field][/field]

Видео: 720x576, ( PAL 4:3), MPEG2 Video, 25,000 кадр/сек, ~ 9800 Кбит/сек
Аудио: Русский, 48,0 КГц, AC3, 6 канала(ов), ~384 Кбит/сек [Профессиональный (полное дублирование)]

Доп. информация: Лицензионное издание"ВидеоСервис"


Полное имя: D:\Аферисты Дик и Джейн DVD-5\VIDEO_TS\VTS_07_1.VOB
Формат: MPEG-PS
Размер файла: 1024 Мбайт
Продолжительность: 20 м.
Общий поток: 7064 Кбит/сек
Видео
Идентификатор: 224 (0xE0)
Формат: MPEG Video
Версия формата: Version 2
Профиль формата: Main@Main
Параметр BVOP формата: Да
Параметр матрицы формата: По умолчанию
Продолжительность: 20 м.
Вид битрейта: Переменный
Битрейт: 6540 Кбит/сек
Номинальный битрейт: 9800 Кбит/сек
Ширина: 720 пикс.
Высота: 576 пикс.
Соотношение сторон: 4:3
Частота кадров: 25,000 кадр/сек
Стандарт вещания: PAL
Цветовое пространство: YUV
Подвыборка цветности: 4:2:0
Битовая глубина: 8 бит
Тип развёртки: Прогрессивная
Порядок развёртки: Верхнее поле первое
Метод сжатия: С потерями
Бит/(Пиксели*Кадры): 0.631
Размер потока: 948 Мбайт (93%)
Аудио
Идентификатор: 128 (0x80)
Формат: AC-3
Формат/Информация: Audio Coding 3
Расширение режима: CM (complete main)
Продолжительность: 20 м.
Вид битрейта: Постоянный
Битрейт: 384 Кбит/сек
Канал(ы): 6 канала(ов)
Расположение каналов: Front: L C R, Side: L R, LFE
Частота: 48,0 КГц
Битовая глубина: 16 бит
Метод сжатия: С потерями
Размер потока: 55,6 Мбайт (5%)
Меню
























Поделиться:




реклама партнёра


Вернуться к началу
 Профиль Отправить личное сообщение  
 
   Похожие торренты   Автор   Торрент   Размер 
В этой теме нет новых непрочитанных сообщений. Аферисты Дик и Джейн / Fun with Dick and Jane [комедия, криминал, 2005] WEB-DL 720p, Dub+Dvo+Sub

salma3

66 | 32

3.64 ГБ

В этой теме нет новых непрочитанных сообщений. Аферисты Дик и Джейн / Fun with Dick and Jane [комедия, криминал, 2005] HDRip, Dub

salma3

86 | 18

1.45 ГБ

В этой теме нет новых непрочитанных сообщений. Джейн берет ружье / Jane Got a Gun [боевик, драма, вестерн, 2016] DVD5, Dub

salma3

13 | 2

4.24 ГБ

В этой теме нет новых непрочитанных сообщений. Джейн и потерянный город / Jane and the Lost City [Комедия, приключения, 1987] DVDRip, Dvo

salma3

63 | 0

1.46 ГБ

В этой теме нет новых непрочитанных сообщений. Джейн хочет бойфренда / Jane Wants a Boyfriend (Уилльям Салливан / William Sullivan) [2015г., драма, мелодрама, комедия, WEB-DLRip] mvo

Alfredovich

96 | 2

1.37 ГБ

В этой теме нет новых непрочитанных сообщений. Джейн Остин / Becoming Jane [драма, мелодрама, биография, 2007] BDRip-AVC, Dub

salma3

26 | 17

1.45 ГБ

В этой теме нет новых непрочитанных сообщений. Джейн Остин / Becoming Jane [драма, мелодрама, биография, 2007] BDRip, Dub

salma3

37 | 15

2.18 ГБ


Начать новую тему Ответить на тему  [ 1 сообщение ] 




Для Мосгорсуда, Роскомнадзора и рекламодателей:: mosgorsud-torrent[собачка]yandex.ru