Торрент файл
скачать торрент магнет ссылка Добавлен: 08 янв 2012, 21:32
Размер: 3.95 ГБ
Сидеров: 0
Личеров: 6
Автор

СообщениеДобавлено: 08 янв 2012, 21:32 

Не в сети
Супермодератор
Аватара пользователя
Дата регистрации:
11 апр 2010, 18:10
Спасибо: 5960 / 7
Сообщения: 56765
Лаутары / Lăutarii

Перевод: Профессиональный (полное дублирование)
cубтитры: отсутствуют
Формат: DVD5, DVD Video, MPEG2, AC3
Страна: СССР
Режиссер: Эмиль Лотяну
Жанр: Драма
Продолжительность: 02:12:14
Год выпуска: 1971

В ролях: Сергей Лункевич, Думитру Хебешеску, Женя Ролько, Думитру Мокану, Хараламбиэ Бердага, Илие Мэскэй, Василе Зубку-Кодряну, Вилли Мусоян, Галина Водяницкая, Ольга Кымпяну, Анжелика Ященку, И. Держи, Григоре Григориу, Домника Дариенко, Светлана Тома, В. Курча, Думитру Карачобану, Виктор Чутак, Мирче Соцки-Войническу, Расми (Рамзес) Джабраилов, Ион Аракелу, Георге Димитриу, Михаил Тимофти, Константин Константинов, Михай Курагэу, Думитру Фусу, Валерий Харченко, Георгий Хассо, Валериу Купча, Виктор Соцки-Войническу, Александр Барушной, Мария Сагайдак, Любомир Йорга

Описание: Красочное романтическое повествование о бродячих народных музыкантах Молдавии - лаутарах.
С детства две страсти владели душой Тома Аристара - музыка и любовь к красавице - цыганке Лянке. Но, как ни боролись юные любовники за свое счастье, их разлучили. А со скрипкой разлучить не смогли. Ее он пронес по дорогам Молдавии через всю жизнь как память о Лянке. Имя его было известно ценителям музыки далеко за пределами родной земли.


Рейтинг на КиноПоиск:6.652[/field]
Рейтинг на IMDB:6.8/10[/field]

Видео: 720x576 (PAL 16:9), MPEG 2 Video, 25,000 fps, ~4192 kbps avg
Аудио: Русский, 48,0 kHz, AC3, 2 ch, 192 kbps avg [Профессиональный (полное дублирование)]

Доп. информация:
Фильм снялся на киностудии Молдова-фильм, на родном молдавском языке. В 1973 г. он был дублирован на киностудии "Мосфильм" и поступил в прокат по всем городам СССР.
Награды, номинации, фестивали:
Премия "Нимфа" Эмилю Лотяну на МКФ в Неаполе в 1972 году;
Призы "Серебряная раковина", "Ненускуа", "Гаксен" Эмилю Лотяну на МКФ в Сан-Себастьяне в 1972;
Приз "Серебряная сирена" Эмилю Лотяну на Фестивале советских фильмов в Сорренто в 1972;
Главный приз Эмилю Лотяну на МКФ фильмов об искусстве и фольклоре в Орвието в 1973.

Общее
Полное имя: C:\Tfile\lautary_[tfile.ru]\VIDEO_TS\VTS_01_1.VOB
Формат: MPEG-PS
Размер файла: 1024 Мбайт
Продолжительность: 32 м.
Общий поток: 4473 Кбит/сек

Видео
Идентификатор: 224 (0xE0)
Формат: MPEG Video
Версия формата: Version 2
Профиль формата: Main@Main
Параметр BVOP формата: Да
Параметр матрицы формата: По умолчанию
Параметры GOP формата: M=3, N=13
Продолжительность: 32 м.
Вид битрейта: Переменный
Битрейт: 4192 Кбит/сек
Номинальный битрейт: 9008 Кбит/сек
Ширина: 720 пикс.
Высота: 576 пикс.
Соотношение сторон: 16:9
Частота кадров: 25,000 кадр/сек
Стандарт вещания: PAL
Цветовое пространство: YUV
Подвыборка цветности: 4:2:0
Битовая глубина: 8 бит
Тип развёртки: Прогрессивная
Метод сжатия: С потерями
Бит/(Пиксели*Кадры): 0.404
Размер потока: 960 Мбайт (94%)

Аудио
Идентификатор: 128 (0x80)
Формат: AC-3
Формат/Информация: Audio Coding 3
Расширение режима: CM (complete main)
Продолжительность: 32 м.
Вид битрейта: Постоянный
Битрейт: 192 Кбит/сек
Канал(ы): 1 канал
Расположение каналов: Front: C
Частота: 48,0 КГц
Битовая глубина: 16 бит
Метод сжатия: С потерями
Размер потока: 43,9 Мбайт (4%)




















Поделиться:




реклама партнёра


Вернуться к началу
 Профиль Отправить личное сообщение  
 
   Похожие торренты   Автор   Торрент   Размер 
В этой теме нет новых непрочитанных сообщений. Мамы 3 (Георгий Малков, Эмиль Никогосян) [Комедия, Семейный, 2014] DVB

Dracon

1493 | 170

3.15 ГБ

В этой теме нет новых непрочитанных сообщений. Мамы 3 (Георгий Малков, Эмиль Никогосян) [Комедия, Семейный, 2014] HDRip

Dracon

510 | 14

1.37 ГБ

В этой теме нет новых непрочитанных сообщений. Мамы 3 (Георгий Малков, Эмиль Никогосян ) [Комедия, Семейный, 2014] WEBRip

Dracon

9 | 2

700.5 МБ

В этой теме нет новых непрочитанных сообщений. Мамы 3 (Георгий Малков, Эмиль Никогосян ) [Комедия, Семейный, 2014] Blu-ray RUS 1080p

Dracon

5 | 6

16.84 ГБ

В этой теме нет новых непрочитанных сообщений. Мамы 3 (Георгий Малков, Эмиль Никогосян) [Комедия, Семейный, 2014] BDRip 720p

Dracon

34 | 9

4.24 ГБ

В этой теме нет новых непрочитанных сообщений. Мамы 3 (Георгий Малков, Эмиль Никогосян ) [Комедия, Семейный, 2014] BDRip 1080p

Dracon

16 | 5

7.53 ГБ

В этой теме нет новых непрочитанных сообщений. Семейная жизнь / Zycie rodzinne [драма, 1971] DVDRip, Mvo

salma3

21 | 8

1.37 ГБ


Начать новую тему Ответить на тему  [ 1 сообщение ] 




Для Мосгорсуда, Роскомнадзора и рекламодателей:: mosgorsud-torrent[собачка]yandex.ru