Торрент файл
скачать торрент магнет ссылка Добавлен: 08 янв 2012, 21:32
Размер: 3.82 ГБ
Сидеров: 0
Личеров: 4
Автор

СообщениеДобавлено: 08 янв 2012, 21:32 

Не в сети
Супермодератор
Аватара пользователя
Дата регистрации:
11 апр 2010, 18:10
Спасибо: 5798 / 7
Сообщения: 56779
Альфонс

Перевод: Не требуется
Субтитры: отсутствуют
Формат: DVD5, DVD Video, MPEG2, AC3
Страна: Россия
Режиссер: Владимир Златоустовский
Жанр: Комедия
Продолжительность: 01:15:06
Год выпуска: 1993

В ролях: Александр Панкратов-Черный, Наталья Гундарева, Владимир Ильин, Ирина Розанова, Армен Джигарханян, Наталья Крачковская, Люсьена Овчинникова, Михаил Филиппов, Вадим Захарченко, Татьяна Скороходова

Описание: Однажды актер Ребров наотрез отказался участвовать в малопристойном спектакле и вылетел, что называется, за дверь. Когда же пришел домой и узнал, что в его семье намечается пополнение, примерный семьянин не расстроился, а организовал кооператив «Сибиряк», где одиноким бездетным женщинам гарантировалось появление прекрасных младенцев.
Ассистентом Реброва стал Вовик, тоже актер-неудачник. Беспросветно пьющий и совершенно равнодушный к женскому полу толстячок будет весьма талантливо исполнять роль экстрасенса до тех пор, пока «Сибиряк» не обратит на себя внимание рэкета и пока не появится в его апартаментах милая женщина с мечтой родить от экстрасенса сынишку.


Рейтинг на КиноПоиск:5.726[/field]
Рейтинг на IMDB:4.8/10[/field][/field]

Видео: 720x576, ( PAL 4:3), MPEG2 Video, 25,000 кадр/сек, ~ 8000 Кбит/сек
Аудио: Русский, 48,0 КГц, AC3, 5 канала(ов), ~448 Кбит/сек

Доп. информация:

Лицензионное издание"Монолит" [/field]


Полное имя: F:\Фильмы DVD\Альфонс DVD-5\VIDEO_TS\VTS_03_1.VOB
Формат: MPEG-PS
Размер файла: 1024 Мбайт
Продолжительность: 22 м.
Общий поток: 6417 Кбит/сек
Видео
Идентификатор: 224 (0xE0)
Формат: MPEG Video
Версия формата: Version 2
Профиль формата: Main@Main
Параметр BVOP формата: Да
Параметр матрицы формата: По умолчанию
Продолжительность: 22 м.
Вид битрейта: Переменный
Битрейт: 5841 Кбит/сек
Номинальный битрейт: 8000 Кбит/сек
Ширина: 720 пикс.
Высота: 576 пикс.
Соотношение сторон: 4:3
Частота кадров: 25,000 кадр/сек
Стандарт вещания: PAL
Цветовое пространство: YUV
Подвыборка цветности: 4:2:0
Битовая глубина: 8 бит
Тип развёртки: Чересстрочная
Порядок развёртки: Нижнее поле первое
Метод сжатия: С потерями
Бит/(Пиксели*Кадры): 0.563
Размер потока: 932 Мбайт (91%)
Аудио
Идентификатор: 128 (0x80)
Формат: AC-3
Формат/Информация: Audio Coding 3
Расширение режима: CM (complete main)
Продолжительность: 22 м.
Вид битрейта: Постоянный
Битрейт: 448 Кбит/сек
Канал(ы): 5 канала(ов)
Расположение каналов: Front: L C R, Side: L R
Частота: 48,0 КГц
Битовая глубина: 16 бит
Метод сжатия: С потерями
Размер потока: 71,5 Мбайт (7%)
Меню



























Поделиться:




реклама партнёра


Вернуться к началу
 Профиль Отправить личное сообщение  
 
   Похожие торренты   Автор   Торрент   Размер 
В этой теме нет новых непрочитанных сообщений. Возвращение Мухтара-2 [10 сезон: 1-46 серия из 100] (Владимир Златоустовский) [Детектив, криминал, 2015] WEBRip

Dracon

В этой теме нет новых непрочитанных сообщений. Возвращение Мухтара-2 [10 сезон: 1-47 серия из 100] (Владимир Златоустовский) [Детектив, криминал, 2015] WEBRip

Dracon

12 | 7

25.37 ГБ

В этой теме нет новых непрочитанных сообщений. Возвращение Мухтара-2 [S09] (Владимир Златоустовский) [Детектив, криминал, 2013-2014] SATRip, WEB-DLRip, HDTVRip

Dracon

22 | 26

51.59 ГБ

В этой теме нет новых непрочитанных сообщений. Розы мертвы / Roses Are Dead / Acting on Impulse [Детектив, триллер, комедия, 1993] DVD5, Mvo

salma3

9 | 2

3.71 ГБ

В этой теме нет новых непрочитанных сообщений. Ну погоди! [01-25 из 25] (Вячеслав Котёночкин, Юрий Бутырин, Владимир Тарасов...) [1969-2006, мультфильм, комедия, семейный, приключения, DVD5]

Nickolas3435

696 | 58

4.36 ГБ

В этой теме нет новых непрочитанных сообщений. Доппельгангер / Doppelganger [ужасы, триллер, мелодрама, 1993] DVD5, Avo

salma3

32 | 18

4.34 ГБ

В этой теме нет новых непрочитанных сообщений. Филадельфийский эксперимент 2 / Philadelphia Experiment II [Фантастика, 1993] DVD5, Dvo

salma3

18 | 3

4.26 ГБ


Начать новую тему Ответить на тему  [ 1 сообщение ] 




Для Мосгорсуда, Роскомнадзора и рекламодателей:: mosgorsud-torrent[собачка]yandex.ru