Торрент файл
скачать торрент магнет ссылка Добавлен: 08 янв 2012, 21:32
Размер: 4.27 ГБ
Сидеров: 3
Личеров: 7
Автор

СообщениеДобавлено: 08 янв 2012, 21:32 

Не в сети
Супермодератор
Аватара пользователя
Дата регистрации:
11 апр 2010, 18:10
Спасибо: 5960 / 7
Сообщения: 56765
Аэроплан / Airplane!

Перевод: Авторский (одноголосый)
Cубтитры:Английские, немецкие (всего 7)
Формат: DVD5, DVD Video, MPEG2, AC3
Страна: США
Режиссер: Джим Абрахамс, Дэвид Цукер, Джерри Цукер
Жанр: Мелодрама, комедия
Продолжительность: 01:24:05
Год выпуска: 1980

В ролях: Карим Абдул-Джаббар, Ллойд Бриджес, Питер Грейвз, Джули Хэгерти, Роберт Хэйс, Лесли Нильсен, Лорна Паттерсон, Роберт Стэк, Стивен Стакер, Отто

Описание: Роберт Хейс исполняет роль бывшего военного летчика, оказавшегося на борту самолета, экипаж которого из-за пищевого отравления оказался не в состоянии управлять аэробусом.
Хейс вместе со стюардессой вынуждены стать спасителями пестрой компании пассажиров, оказавшихся на грани гибели. Новоявленного пилота и его помощницу ждут немыслимые трудности и невероятные приключения.


Рейтинг на КиноПоиск:7.510[/field]
Рейтинг МРАА:PG[/field]
Рейтинг на IMDB:7.8/10[/field][/field]

Видео: 720x576, ( PAL 16:9), MPEG2 Video, 25,000 кадр/сек, ~ 9800 Кбит/сек
[Аудио #1:Русский, 48,0 КГц, AC3, 6 канала(ов), ~384 Кбит/сек [Авторский (одноголосый) (А. Гаврилов)]
Аудио #2:Английский, 48,0 КГц, AC3, 6 канала(ов), ~384 Кбит/сек [Оигинал]
Аудио #3:Английский, 48,0 КГц, AC3, 1 канал, ~96 Кбит/сек [Оигинал][/field]

Доп. информация: Очень смешная пародия на ленты из серии «Аэропорт», конечно же, на одноимённую книгу Артура Хейли, а также на фильмы-катастрофы, картины типа «Челюстей» да и на кино в целом. По высказыванию влиятельного американского критика Роджера Ибёрта, это «сатирическая антология кинематографических клише… и отсутствие оригинальных комических изобретений компенсируется полной готовностью авторов отовсюду украсть, выпросить, одолжить и просто переписать». Однако следует заметить: щедро рассыпанные по действию разнообразные шутки лучше действуют только в том случае, если зритель точно знает, что именно в этот момент пародируется. Иначе «Аэроплан!» не произведёт нужного эффекта.

[/field]

Полное имя: D:\Аэроплан! DVD-5\VIDEO_TS\VTS_01_1.VOB
Формат: MPEG-PS
Размер файла: 1024 Мбайт
Продолжительность: 19 м.
Общий поток: 7195 Кбит/сек
Видео
Идентификатор: 224 (0xE0)
Формат: MPEG Video
Версия формата: Version 2
Профиль формата: Main@Main
Параметр BVOP формата: Да
Параметр матрицы формата: По умолчанию
Продолжительность: 19 м.
Вид битрейта: Переменный
Битрейт: 6188 Кбит/сек
Номинальный битрейт: 9800 Кбит/сек
Ширина: 720 пикс.
Высота: 576 пикс.
Соотношение сторон: 16:9
Частота кадров: 25,000 кадр/сек
Стандарт вещания: Component
Цветовое пространство: YUV
Подвыборка цветности: 4:2:0
Битовая глубина: 8 бит
Тип развёртки: Чересстрочная
Порядок развёртки: Верхнее поле первое
Метод сжатия: С потерями
Бит/(Пиксели*Кадры): 0.597
Размер потока: 881 Мбайт (86%)
Аудио #1
Идентификатор: 128 (0x80)
Формат: AC-3
Формат/Информация: Audio Coding 3
Расширение режима: CM (complete main)
Продолжительность: 19 м.
Вид битрейта: Постоянный
Битрейт: 384 Кбит/сек
Канал(ы): 6 канала(ов)
Расположение каналов: Front: L C R, Side: L R, LFE
Частота: 48,0 КГц
Битовая глубина: 16 бит
Метод сжатия: С потерями
Размер потока: 54,6 Мбайт (5%)
Аудио #2
Идентификатор: 129 (0x81)
Формат: AC-3
Формат/Информация: Audio Coding 3
Расширение режима: CM (complete main)
Продолжительность: 19 м.
Вид битрейта: Постоянный
Битрейт: 384 Кбит/сек
Канал(ы): 6 канала(ов)
Расположение каналов: Front: L C R, Side: L R, LFE
Частота: 48,0 КГц
Битовая глубина: 16 бит
Метод сжатия: С потерями
Размер потока: 54,6 Мбайт (5%)
Аудио #3
Идентификатор: 130 (0x82)
Формат: AC-3
Формат/Информация: Audio Coding 3
Расширение режима: CM (complete main)
Продолжительность: 19 м.
Вид битрейта: Постоянный
Битрейт: 96,0 Кбит/сек
Канал(ы): 1 канал
Расположение каналов: Front: C
Частота: 48,0 КГц
Битовая глубина: 16 бит
Метод сжатия: С потерями
Размер потока: 13,7 Мбайт (1%)
Меню






























Золотой глобус, 1981 год
Номинации (1):
* Лучший фильм (комедия или мюзикл)
Британская академия, 1981 год
Номинации (1):
* Лучший сценарий

Поделиться:




реклама партнёра


Вернуться к началу
 Профиль Отправить личное сообщение  
 
   Похожие торренты   Автор   Торрент   Размер 
В этой теме нет новых непрочитанных сообщений. Аэроплан / Airplane! [комедия, 1980] BDRip 720p, Mvo+Avo+Sub

salma3

94 | 13

7.57 ГБ

В этой теме нет новых непрочитанных сообщений. Джерри Магуайер / Jerry Maguire [драма, мелодрама, комедия, спорт, 1996] HDRip, Dub

salma3

98 | 10

1.46 ГБ

В этой теме нет новых непрочитанных сообщений. Джерри Магуайер / Jerry Maguire [драма, мелодрама, комедия, спорт, 1996] HDRip, Dub

salma3

34 | 10

2.19 ГБ

В этой теме нет новых непрочитанных сообщений. Скорая помощь / The Ambulance [боевик, триллер, мелодрама, 1990] DVDRip, Avo [Гаврилов]

salma3

10 | 3

1.31 ГБ

В этой теме нет новых непрочитанных сообщений. Смертельная тайна / Deadly Secret / Lian cheng jus [Боевые искусства, 1980] DVD5, Avo

salma3

16 | 12

4.25 ГБ

В этой теме нет новых непрочитанных сообщений. Десятидюймовый герой / Ten Inch Hero (Дэвид Маккэй) [2007, драма, мелодрама, комедия, WEB-DL 720p] mvo

Nickolas3435

182 | 5

4.15 ГБ

В этой теме нет новых непрочитанных сообщений. Аппетит к любви / Appetite for Love (Дэвид Маккэй / David Mackay) [2016г., мелодрама, комедия, HDTV 720p] MVO

Alfredovich

21 | 0

2.55 ГБ


Начать новую тему Ответить на тему  [ 1 сообщение ] 




Для Мосгорсуда, Роскомнадзора и рекламодателей:: mosgorsud-torrent[собачка]yandex.ru