Торрент файл
скачать торрент магнет ссылка Добавлен: 08 янв 2012, 21:31
Размер: 4.31 ГБ
Сидеров: 2
Личеров: 9
Автор

СообщениеДобавлено: 08 янв 2012, 21:31 

Не в сети
Супермодератор
Аватара пользователя
Дата регистрации:
11 апр 2010, 18:10
Спасибо: 5801 / 7
Сообщения: 56779
Американская дочь

Перевод: Не требуется
Субтитры: отсутствуют
Формат: DVD5, DVD Video, MPEG2, AC3
Страна: Россия, Казахстан
Режиссер: Карен Шахназаров
Жанр: Драма, комедия
Продолжительность: 01:36:41
Год выпуска: 1995

В ролях: Владимир Машков, Мария Шукшина, Армен Джигарханян, Эллисон Уитбек, Стивен Епп ,Джонни Хэйес, Малкольм Браунсон, Мэриан В. Каротерс, Ким Даффиси-Браун, Дженнифер Дэвис

Описание: Герой фильма — музыкант одного из московских ресторанов — прилетает в Сан-Франциско, чтобы… похитить свою дочь. Маленькую Анюту тайно увезла с собой его бывшая жена, выйдя замуж за респектабельного американца.
После трогательной встречи папы с дочкой начинается их путешествие автостопом по всей Америке, полное комедийных ситуаций и приключений…


Рейтинг на КиноПоиск:7.141[/field]
Рейтинг на IMDB:6.0/10[/field][/field]

Видео: 720x576, ( PAL 4:3), MPEG2 Video, 25,000 кадр/сек, ~ 6000 Кбит/сек
Аудио: Русский, 48,0 КГц, AC3, 2 канала(ов), ~192 Кбит/сек

Доп. информация: Релиз на DVD 18 августа 2009, «Lizard Cinema Trade»


Полное имя: К:\Американская дочь.1995.DVD-5\VIDEO_TS\VTS_01_1.VOB
Формат: MPEG-PS
Размер файла: 1024 Мбайт
Продолжительность: 21 м.
Общий поток: 6661 Кбит/сек
Видео
Идентификатор: 224 (0xE0)
Формат: MPEG Video
Версия формата: Version 2
Профиль формата: Main@Main
Параметр BVOP формата: Да
Параметр матрицы формата: По умолчанию
Продолжительность: 21 м.
Вид битрейта: Постоянный
Битрейт: 6336 Кбит/сек
Номинальный битрейт: 6000 Кбит/сек
Ширина: 720 пикс.
Высота: 576 пикс.
Соотношение сторон: 4:3
Частота кадров: 25,000 кадр/сек
Стандарт вещания: PAL
Цветовое пространство: YUV
Подвыборка цветности: 4:2:0
Битовая глубина: 8 бит
Тип развёртки: Чересстрочная
Порядок развёртки: Верхнее поле первое
Метод сжатия: С потерями
Бит/(Пиксели*Кадры): 0.611
Размер потока: 974 Мбайт (95%)
Аудио
Идентификатор: 128 (0x80)
Формат: AC-3
Формат/Информация: Audio Coding 3
Расширение режима: CM (complete main)
Продолжительность: 3 с. 264 мс.
Вид битрейта: Постоянный
Битрейт: 192 Кбит/сек
Канал(ы): 2 канала(ов)
Расположение каналов: Front: L R
Частота: 48,0 КГц
Битовая глубина: 16 бит
Метод сжатия: С потерями
Размер потока: 76,5 Кбайт (0%)
Меню




























Поделиться:




реклама партнёра


Вернуться к началу
 Профиль Отправить личное сообщение  
 
   Похожие торренты   Автор   Торрент   Размер 
В этой теме нет новых непрочитанных сообщений. Первая дочь / В погоне за свободой / Chasing Liberty / First Daughter [Комедия, 2004] DVD5, Mvo+Sub

salma3

2 | 3

4.29 ГБ

В этой теме нет новых непрочитанных сообщений. Рони, дочь разбойника / Ронья, дочь разбойника / Sanzoku no Musume Ronja [TV] [01-22 из 26] (Миядзаки Горо) [2014, приключения, сказка, HDTVRip 720p | LE-Production]

Nickolas3435

79 | 40

11.13 ГБ

В этой теме нет новых непрочитанных сообщений. Рони, дочь разбойника / Ронья, дочь разбойника / Sanzoku no Musume Ronja [TV] [01-23 из 26] (Миядзаки Горо) [2014, приключения, сказка, HDTVRip 720p | LE-Production]

Nickolas3435

19 | 8

11.63 ГБ

В этой теме нет новых непрочитанных сообщений. Американская ночь / La Nuit americaine [драма, мелодрама, комедия, 1973] BDRip 1080p, Dvo+Sub

salma3

4 | 2

10.28 ГБ

В этой теме нет новых непрочитанных сообщений. Американская ночь / La Nuit americaine [драма, мелодрама, комедия, 1973] BDRip 720p, Dvo+Sub

salma3

79 | 7

3.88 ГБ

В этой теме нет новых непрочитанных сообщений. Флюк / Fluke [фэнтези, драма, семейный, 1995] DVD5, Dub+Sub

salma3

8 | 5

4.04 ГБ

В этой теме нет новых непрочитанных сообщений. Имитатор / Copycat [триллер, драма, криминал, детектив, 1995] DVD5, Mvo+Sub

salma3

4 | 2

4.26 ГБ


Начать новую тему Ответить на тему  [ 1 сообщение ] 




Для Мосгорсуда, Роскомнадзора и рекламодателей:: mosgorsud-torrent[собачка]yandex.ru