Торрент файл
скачать торрент магнет ссылка Добавлен: 08 янв 2012, 02:07
Размер: 7.24 ГБ
Сидеров: 4
Личеров: 4
Автор

СообщениеДобавлено: 08 янв 2012, 02:07 

Не в сети
Супермодератор
Аватара пользователя
Дата регистрации:
11 апр 2010, 18:10
Спасибо: 5801 / 7
Сообщения: 56779
Исчезнувшие / Исчезнувшие


Перевод: Не требуется, cубтитры: отсутствуют
Формат: DVD9, DVD Video, MPEG2, AC3
Страна: Россия
Режиссер: Вадим Островский
Жанр: Война, Драма
Продолжительность: 03:11:32
Год выпуска: 2009
В ролях: Кирилл Пирогов, Владимир Толоконников, Николай Иванов, Егор Пазенко, Александр Воробьев, Михаил Трухин, Андрей Феськов, Елена Лядова
Описание: 1942 год. Бежавший из плена майор Топорков пробирается в окруженный немцами партизанский лагерь. Майор просит командира отряда дать ему обоз с оружием, чтобы пробиться к концлагерю: заключенные готовят восстание. Командир предупреждает Топоркова - в его отряде есть предатель, снабжающий немцев информацией. Он наверняка попытается уйти в составе группы, сопровождающей обоз. В ряды добровольцев просится молоденький партизан Мошкин, отец которого служил полицаем. После первого привала Мошкин исчезает...

Рейтинг на Кинопоиске: 7.135

Видео: 720x576 (PAL 4:3), 25 fps, MPEG2 9000 kbps vbr, 0.463 bit/pixel
Аудио: 48 kHz, Audio Coding 3, 2 ch, 192 Kbps


Title: Izchznuv
Size: 7.24 Gb ( 7 594 154 KBytes ) - DVD-9
Enabled regions: 1, 2, 3, 4, 5, 6, 7, 8

VTS_01 :
Play Length: 00:52:04+00:49:24+00:45:30+00:44:34
Video: PAL 4:3 (720x576) VBR
Audio:
Russian (Dolby AC3, 2 ch)


General
Complete name: C:\Downloads\Video\Ischeznuvshie.(4.serii.iz.4).2009.DVD-9\VIDEO_TS\VTS_01_1.VOB
Format: MPEG-PS
File size: 1 024 MiB
Duration: 27mn 31s
Overall bit rate: 5 203 Kbps

Video
ID: 224 (0xE0)
Format: MPEG Video
Format version: Version 2
Format profile: Main@Main
Format settings, Matrix: Default
Duration: 27mn 31s
Bit rate mode: Variable
Bit rate: 4 804 Kbps
Nominal bit rate: 9 000 Kbps
Width: 720 pixels
Height: 576 pixels
Display aspect ratio: 4/3
Frame rate: 25.000 fps
Standard: PAL
Colorimetry: 4:2:0
Scan type: Interlaced
Scan order: Top Field First
Bits/(Pixel*Frame): 0.463
Stream size: 946 MiB (92%)

Audio
ID: 128 (0x80)
Format: AC-3
Format/Info: Audio Coding 3
Duration: 27mn 30s
Bit rate mode: Constant
Bit rate: 192 Kbps
Channel(s): 2 channels
Channel positions: L R
Sampling rate: 48.0 KHz
Stream size: 37.8 MiB (4%)

Menu
Format: DVD-Video


Всем приятного просмотра!
Незабывайте оставлять свои комментарии!
Просьба: Неуходите с раздачи!












Поделиться:




реклама партнёра


Вернуться к началу
 Профиль Отправить личное сообщение  
 
   Похожие торренты   Автор   Торрент   Размер 
В этой теме нет новых непрочитанных сообщений. Провидица (Джуна) [01-08 из 08] (Вадим Островский) [Мистика, биография, детектив, драма, 2015] HDTVRip

Dracon

283 | 79

5.71 ГБ

В этой теме нет новых непрочитанных сообщений. Провидица (Джуна) [01-08 из 08] (Вадим Островский) [Мистика, биография, детектив, драма, 2015] HDTV 1080i

Dracon

56 | 21

23.95 ГБ

В этой теме нет новых непрочитанных сообщений. Война обычного человека / Everyman's War [Драма, военный, биография, 2009] BDRip 720p, Mvo+Sub

salma3

18 | 5

5.77 ГБ

В этой теме нет новых непрочитанных сообщений. Холодная война [1-8 серия из 8] (Наталия Метлина) [Документальный, война, история, 2015] IPTVRip

Dracon

15 | 2

4.26 ГБ

В этой теме нет новых непрочитанных сообщений. National Geographic: Апокалипсис: Первая мировая война / Apocalypse: World War I [01-02 из 05] (Изабель Кларк, Даниэль Костель) [2014, Документальный, война, история, HDTV 1080i]

Nickolas3435

46 | 13

6.78 ГБ

В этой теме нет новых непрочитанных сообщений. Верн Жюль - Флаг родины [Цимбалов Вадим, 2009, классика научной фантастики, 128 kbps]

Magnatik

5 | 3

348.41 МБ

В этой теме нет новых непрочитанных сообщений. Война Принцессы [Драма, 2013] SATRip

Dracon

3 | 2

1.1 ГБ


Начать новую тему Ответить на тему  [ 1 сообщение ] 




Для Мосгорсуда, Роскомнадзора и рекламодателей:: mosgorsud-torrent[собачка]yandex.ru